<?xml version="1.0" encoding="UTF-8" standalone="no"?> <svg><metadata> Created by FontForge 20090622 at Thu Oct 13 10:49:28 2016 By ffonts Copyright \(c\) 2016 by Artimasa. All rights reserved. </metadata><defs><font id="Playlist-Script"><glyph glyph-name="t_t" unicode="tt" d="M392 263c-30 -80 -54 -162 -79 -244c-11 -39 -26 -82 -26 -123c0 -10 0 -21 7 -28c18 4 34 22 46 35c-1 -1 -17 -15 -18 -13c-1 6 19 23 22 27l27 33l50 65l109 151l46 63c3 3 7 11 11 13c18 7 18 -16 14 -28c-7 -18 -24 -36 -36 -52c-8 -12 -13 -24 -21 -37 c-25 -42 -53 -82 -80 -122c-30 -43 -59 -87 -91 -128c-19 -26 -46 -68 -77 -81c-20 -8 -44 2 -59 14c-15 11 -26 28 -32 45c-1 5 -10 31 -4 37c0 -3 1 -18 1 -18c0 8 -1 15 0 23c-1 0 0 16 0 17c0 7 1 13 2 19c3 18 7 36 11 54c9 38 17 76 25 115 c-34 -55 -68 -110 -108 -160c-12 -14 -26 -34 -44 -42c-28 -12 -65 13 -81 34c-15 20 -15 37 -11 60c2 8 2 51 8 57c0 -1 0 -5 -1 -8l2 11c-1 0 0 12 0 14c0 7 2 14 4 21c3 17 8 34 13 51c9 30 18 60 25 91c6 31 17 61 28 91c2 4 25 70 31 70c1 0 -3 -13 -2 -13l18 48 c-2 -5 -7 -13 -7 -11c0 11 11 26 15 36l14 36c-13 -1 -25 -6 -39 -7c-26 -2 -53 0 -79 -1c-13 0 -118 -7 -119 10c-1 7 48 15 53 16c46 11 100 12 147 13c12 1 29 -3 40 0s3 -5 12 8l5 13c8 21 17 41 27 60c20 43 38 86 60 128c9 16 21 28 30 40c10 15 16 35 26 51 c9 14 19 32 31 45c15 16 41 20 62 19c16 0 49 -3 50 -26c0 -11 -11 -17 -18 -24c3 2 6 5 6 3c0 -6 -37 -59 -41 -58c-1 0 14 25 15 27c-44 -66 -82 -136 -116 -207c25 51 56 112 63 116c-8 -7 -85 -171 -93 -186c36 0 72 1 108 2c23 0 21 -2 31 21l21 47c8 15 15 31 26 45 c5 7 11 10 15 19c9 21 18 40 31 60c10 16 19 36 37 45c22 12 63 15 85 2c25 -15 7 -30 -5 -45c3 3 7 7 7 5c0 -6 -39 -62 -42 -61c-1 0 14 26 15 28c-34 -51 -62 -106 -89 -160c2 0 4 2 7 6c-2 -3 -2 -6 -2 -6l96 4c6 0 12 0 17 1c1 0 -2 5 2 4c5 0 8 2 10 -5 c8 -27 -48 -35 -64 -35c-12 -1 -31 5 -43 3c-5 -1 -3 -4 -8 -6c-7 -2 -17 0 -23 -3c-14 -5 -24 -40 -31 -54c-9 -20 -18 -40 -26 -60c-17 -39 -34 -79 -49 -120zM299 263l7 23c-2 -4 -6 -11 -6 -11c0 17 16 42 21 58c6 18 12 36 19 54c13 37 28 72 43 107 c-23 1 -44 1 -65 -4c-13 -3 -26 -2 -40 -2c-6 0 -14 1 -20 0c-11 -3 -10 -1 -15 -14c-26 -56 -50 -113 -71 -171l-58 -168c-10 -29 -19 -58 -26 -88c-3 -12 -15 -57 -9 -65c1 -6 4 -10 8 -11c-2 2 -1 7 -3 8c13 -1 21 8 32 20c24 27 45 58 65 87c41 58 78 118 118 177z M106 183c-10 -33 -19 -66 -26 -100c12 52 31 102 50 151c27 69 52 140 82 209c35 81 69 166 111 247c-46 -88 -85 -181 -126 -269c-35 -77 -66 -157 -91 -238zM353 255c-13 -38 -25 -76 -36 -114c12 39 26 76 42 114c13 32 25 67 36 101c-14 -34 -31 -67 -42 -101zM491 497 c-11 0 -35 -67 -43 -89c0 1 1 1 1 2l2 5v-1l2 5c12 26 24 52 38 78zM74 60c-5 -22 -23 -82 0 -96c-16 11 -9 42 -7 58c1 4 1 7 1 8zM424 352c-13 -30 -25 -60 -37 -91l24 58v2s1 0 1 1zM543 599c-1 0 -11 -18 -19 -35c8 18 14 36 19 35zM286 575l6 13zM278 558l8 17z M453 419c0 0 -1 0 -1 -1zM524 563c-1 -1 -1 -2 -1 -3c0 1 0 2 1 3zM521 557c0 1 1 2 2 3c-1 -1 -2 -2 -2 -3zM452 418c-1 -1 -1 -2 -1 -3z"></glyph><glyph glyph-name="l_l" unicode="ll" d="M739 261c22 -15 -15 -74 -22 -86c-13 -23 -22 -48 -34 -71c-34 -68 -72 -133 -112 -197c-39 -60 -81 -138 -142 -179c-16 -10 -30 -14 -48 -12c-55 8 -76 63 -81 112c-8 69 8 137 20 203c-1 1 1 13 1 14c-43 -65 -90 -134 -149 -186c-29 -26 -62 -46 -101 -31 c-66 25 -69 117 -65 176c4 72 23 139 41 208c0 2 0 26 5 33c-1 -3 -1 -10 -2 -17c2 8 4 17 7 25h-2c-3 20 11 49 17 68c8 27 17 53 27 79c15 43 32 85 46 128c13 44 33 86 53 128c12 23 23 47 37 69c3 5 26 51 31 51c0 0 -9 -19 -8 -19c10 19 22 39 33 57c0 0 0 1 1 1v1 c3 3 5 6 7 9l2 4c7 11 13 22 19 30c13 17 28 37 47 49c28 17 62 2 80 -23c41 -57 4 -134 -19 -190c-16 -41 -36 -80 -57 -118c-11 -19 -21 -40 -35 -58c-8 -10 -16 -14 -21 -26c-34 -66 -75 -129 -116 -191c-20 -30 -48 -57 -57 -92c-7 -23 -13 -45 -19 -68l-8 -30 c0 -1 -4 -13 -4 -8c-3 -8 -4 -16 -5 -24c2 8 4 17 7 17s-48 -204 9 -211c29 -3 61 40 77 59c34 40 65 85 94 130c15 23 32 47 45 71c11 23 16 49 24 73c15 48 32 95 45 144c13 48 33 95 53 141c10 22 19 44 30 66c3 5 24 54 29 54l-7 -20c12 24 23 48 36 72 c-4 -6 -9 -15 -10 -14c-1 0 49 88 54 96c18 30 39 65 68 86c37 25 82 -5 95 -43c28 -78 -28 -174 -64 -240c-15 -26 -37 -45 -49 -70c-17 -34 -38 -67 -59 -99c-25 -36 -49 -73 -75 -108c-12 -16 -29 -31 -38 -48c-8 -15 -11 -36 -16 -52c-13 -46 -26 -92 -37 -138 c-6 -22 -11 -44 -16 -66l-6 -31s-5 -21 -6 -20c-2 -11 -4 -23 -5 -36c1 8 8 29 8 29c12 -20 -30 -144 24 -141c17 1 34 23 44 34c27 29 49 63 70 97c42 66 80 135 117 204c10 18 71 159 92 145zM183 347v-2l-2 -4c81 132 162 269 216 414c-20 -53 -46 -103 -72 -153l-42 -81 c-10 -16 -27 -38 -35 -56c7 19 22 38 32 56l35 64c21 42 42 85 61 128c15 34 46 91 38 129c-5 26 -19 16 -30 2c-28 -33 -46 -76 -63 -115c-20 -44 -37 -89 -53 -134c-15 -41 -28 -82 -42 -123c-8 -22 -16 -44 -23 -66l-9 -27l-6 -17c-4 -9 -4 -11 0 -5c-1 -4 -3 -7 -5 -10z M506 351l21 34l1 1c0 -1 -1 -1 -1 -1l1 1l1 1c17 26 21 34 19 31c34 57 67 115 98 174c22 44 54 97 66 150c-10 -47 -39 -92 -59 -132l-44 -82l-20 -36c-4 -6 -13 -16 -16 -23c5 16 19 34 28 48c11 19 21 38 31 57c20 39 40 77 57 117c6 15 44 99 12 104 c-9 1 -15 -8 -20 -15c-26 -30 -42 -70 -58 -106c-16 -35 -31 -72 -44 -108c-28 -71 -50 -143 -73 -215zM428 191c-16 -61 -31 -122 -43 -182c23 114 63 225 94 338c-19 -51 -38 -102 -51 -156zM57 155c1 1 0 15 -2 15c-4 0 -9 -21 -12 -43c-6 -31 -11 -63 -13 -94l3 16 c0 -6 -1 -11 -1 -15c1 8 5 12 7 24c5 30 5 66 16 94c0 0 1 0 2 3zM215 621c-3 -6 -2 -5 -1 -3c21 39 47 76 67 116c-10 -18 -27 -33 -36 -50c-11 -21 -21 -42 -30 -63zM372 834c-13 -18 -22 -36 -31 -55c15 29 45 78 63 82c-1 0 -2 1 -3 1c-12 0 -23 -19 -29 -28zM369 -95 c0 4 1 8 1 11c-1 -4 -2 -10 -2 -16c0 2 1 4 1 5zM43 122l-4 -21c1 7 2 14 4 21zM322 41l2 8c-2 -3 -3 -5 -2 -8zM293 817l6 8l2 4zM534 396l-3 -5c1 2 2 2 3 5zM35 72c0 3 1 6 1 9c0 -3 -1 -7 -1 -9zM38 92v5v-5zM39 101l-1 -4c0 1 1 2 1 4zM37 84c0 -1 -1 -2 -1 -3 c0 1 1 2 1 3zM530 390c0 0 0 1 1 1z"></glyph><glyph glyph-name=".notdef"></glyph><glyph glyph-name="b" unicode="b" d="M508 245c6 -10 -1 -14 -6 -21l-6 -3c-2 1 -4 1 -5 -1c3 -3 3 -5 1 -8c-12 -15 -34 -19 -47 -32c-7 -7 -8 -11 -16 -19c-3 -3 -8 -3 -11 -5c-8 -5 -19 -14 -25 -21c-17 -20 -37 -41 -53 -65c-29 -42 -112 -146 -166 -80c-30 37 15 46 35 66c16 16 29 35 46 51 c4 3 23 28 26 33l3 5c-6 -7 0 9 0 10c2 8 9 17 13 25c7 13 14 27 16 42c1 10 3 31 -10 34c-4 0 -40 -13 -40 -13c-1 1 5 4 4 6c-7 -5 -12 -9 -18 -15c1 1 2 1 3 1c-8 -4 -73 -90 -78 -98c-12 -20 -21 -43 -36 -60c-3 -2 -5 -3 -7 -2c-4 -3 -5 -7 -4 -12 c-4 -8 -8 -16 -11 -24c-9 -18 -13 -45 -23 -61c-12 -20 -35 -14 -52 -2c-9 6 -16 15 -21 24c0 0 -6 15 -5 15c-2 4 -4 7 -5 12c1 -6 1 -10 1 -9c-18 7 -9 78 -8 91c4 53 14 105 27 157c20 88 50 175 84 259c30 73 60 147 99 216c21 40 45 79 73 114c24 29 58 67 100 66 c81 -4 81 -118 69 -175c0 0 1 -21 -4 -25c1 1 3 20 3 20l-6 -24c1 1 2 1 3 0c3 -14 -11 -39 -16 -51c-8 -17 -16 -33 -26 -49c-15 -28 -33 -55 -49 -83c-18 -31 -41 -58 -65 -83c-5 -6 -61 -65 -68 -60c0 0 10 10 10 11c-13 -11 -26 -23 -40 -34c4 2 7 4 7 4 c-11 -18 -42 -20 -52 -38c-13 -22 -16 -59 -21 -84c-12 -53 -22 -107 -30 -161l2 5l-4 -16c16 32 37 62 59 90c-10 -11 -22 -24 -33 -38c20 29 42 57 66 83c28 30 61 68 100 86c14 6 28 10 43 5c39 -12 44 -53 46 -85c0 3 0 6 2 9c3 2 3 -52 2 -57c28 18 55 35 81 56 c12 9 30 36 42 19h1v-1zM396 876c-4 0 -8 -1 -11 -4c3 2 10 4 11 2c-2 3 -41 -41 -51 -53l13 24c-26 -33 -44 -70 -61 -107c2 3 4 5 6 6c-8 -7 -66 -159 -72 -173c-23 -59 -44 -119 -62 -179c45 36 88 74 124 119l83 108c13 17 21 49 28 70c10 27 17 56 19 85 c1 18 5 102 -27 102zM199 693c-35 -66 -64 -135 -89 -204c26 69 56 138 94 203c25 43 49 85 78 125c21 29 45 60 80 72c-36 -12 -65 -44 -85 -71c-31 -40 -55 -81 -78 -125zM265 98c24 37 52 81 59 126c-7 -32 -30 -73 -38 -84c-17 -24 -34 -47 -52 -70 c-13 -15 -23 -30 -36 -38c25 14 50 43 67 66zM164 388c6 5 9 27 11 35l5 18l-13 -41v-1c-1 -1 -1 -2 -1 -3c0 -2 -1 -3 -1 -4l-1 -2v-2zM209 523l49 125c-17 -41 -33 -83 -49 -125zM104 95c5 12 13 24 21 35zM164 388c0 1 1 2 1 3l-1 -1v-2zM187 204l-1 -1s1 0 1 1z"></glyph><glyph glyph-name="c" unicode="c" d="M362 185c-17 -22 -34 -43 -49 -66c-37 -54 -86 -106 -136 -148c-29 -24 -67 -47 -107 -42c-12 2 -24 6 -32 15c-6 6 -33 45 -28 51c0 0 4 -10 5 -11l-5 17c0 -6 -8 15 -8 19c-2 13 -2 27 -2 40c1 25 5 49 6 73c1 22 6 43 13 64c1 5 19 60 25 59c1 0 -2 -9 -1 -9 c4 10 7 21 12 32l-4 -5c-1 1 35 74 39 81c16 26 35 49 60 67c17 13 37 22 59 19c27 -4 36 -17 46 -38c9 -20 16 -35 14 -61c-1 -15 -3 -35 -10 -50c-7 -14 -38 -33 -54 -22c-13 9 -3 15 2 23l-5 -4s14 51 16 51c1 0 -3 -22 -3 -23c4 13 17 102 -17 75 c-13 -10 -21 -31 -28 -44c-12 -25 -22 -50 -31 -75c12 32 26 64 44 93c6 11 13 23 24 29c1 1 9 -2 7 -3c-1 -1 -5 3 -7 1c-23 -22 -36 -51 -49 -80c-27 -63 -49 -129 -60 -196c-5 -32 -10 -69 -3 -100c2 -7 4 -17 11 -21c17 -12 44 10 58 20c21 16 44 32 61 50 c-3 -2 -6 -4 -9 -5c-2 0 17 24 19 26c10 10 19 21 28 32c16 20 33 40 49 61c8 10 60 93 80 73c15 -17 -21 -55 -30 -68zM69 258c0 1 1 3 1 5c-8 -19 -21 -36 -23 -53c1 5 10 11 13 18c4 9 7 20 9 30zM32 141c2 2 -1 6 -1 6c-4 -12 -4 -25 -3 -37c0 11 0 24 4 31zM104 165 l14 48c-5 -16 -10 -32 -14 -48zM34 160l2 3c-5 -2 -5 -7 -5 -12c0 2 2 6 3 9zM122 225v4c-1 -2 -1 -4 -1 -6c0 1 0 1 1 2z"></glyph><glyph glyph-name="d" unicode="d" d="M591 244c3 -25 -29 -45 -45 -61c-21 -22 -41 -46 -61 -70c-41 -50 -73 -108 -114 -160c-32 -40 -85 -113 -138 -59c-43 42 -32 122 -27 175c-30 -30 -62 -59 -96 -84c-19 -13 -41 -28 -65 -23c-78 16 -67 125 -44 178c13 31 18 64 36 96c20 36 49 77 88 93 c47 19 90 -34 117 -65c24 88 57 172 95 255c2 3 9 32 17 38c-4 -3 -9 -19 -11 -27c4 11 10 22 16 33h-1c3 4 16 36 19 40c9 15 19 29 29 42c19 22 42 43 69 53c37 14 92 6 107 -35c20 -56 -17 -122 -44 -168c-17 -28 -35 -57 -54 -84l-26 -34l-9 -10c1 2 2 4 1 5l-8 -11h1 h-1l-3 -4l-43 -58c5 6 13 16 15 15l-74 -95c-25 -31 -28 -83 -34 -122c-4 -22 -31 -163 4 -163c9 0 21 17 26 23c15 16 28 33 41 51l78 108c26 35 53 70 82 102c6 5 51 60 57 27v-1zM223 178v4c4 18 11 35 1 51c-9 13 -17 30 -30 39c-5 4 -12 9 -19 7c-1 0 -2 0 -3 -1l5 3 c-21 -2 -37 -36 -48 -57c-22 -42 -41 -86 -54 -132c-4 -16 -24 -73 -1 -83c12 -6 32 9 44 20c-13 -11 -28 -19 -37 -18c-33 2 -9 67 6 107c-14 -39 -35 -103 -7 -106c23 -2 59 39 74 53c16 15 32 30 47 46c17 17 17 38 21 62c0 0 0 2 1 5zM384 409c-1 -1 -1 -2 -1 -3l-3 -5 c-1 -4 -2 -6 -1 -5c-15 -43 -29 -86 -42 -129c1 2 3 4 5 6c-5 -7 -10 -13 -11 -19l4 4l7 9l51 66l-20 -25l-22 -23c41 51 80 106 115 162c30 48 78 119 74 179c0 9 -2 22 -11 27c-23 13 -49 -33 -58 -48c-36 -58 -61 -122 -84 -186v-1s-1 -1 -2 -4v-1c-1 -1 -1 -3 -1 -4z M300 327c3 5 8 19 8 27c-2 -8 -12 -19 -14 -25c-4 -12 1 -25 -7 -35c1 0 2 1 2 2c3 3 9 26 11 31zM141 50l-16 -14h1c15 12 30 25 43 38c11 10 42 32 44 45c-23 -24 -47 -47 -72 -69zM318 418c5 15 13 32 18 48c-5 -13 -12 -27 -18 -38c-7 -14 -10 -29 -15 -44 c6 11 11 22 15 34zM383 406l-3 -5c0 -2 -1 -4 -1 -5zM167 274c-3 -3 -6 -7 -8 -7c1 0 4 4 8 7zM195 276l6 -4c-2 2 -4 3 -6 4zM393 294c0 0 1 1 2 3c-1 -1 -2 -2 -2 -3zM395 297c0 0 1 1 1 2z"></glyph><glyph glyph-name="e" unicode="e" d="M383 247c4 -8 1 -13 -4 -19l-31 -41l-54 -70c-14 -18 -31 -35 -45 -53c-15 -20 -28 -41 -45 -60c-18 -19 -39 -39 -63 -52c-17 -9 -33 -10 -51 -5c-26 7 -49 23 -66 43c-5 6 -10 11 -11 19c-1 6 -2 13 -2 20c-1 12 3 21 5 33c2 13 8 25 10 38c2 14 6 27 8 40 c1 12 -1 25 2 37c2 8 8 16 11 25c-3 -6 -8 -12 -9 -17c-3 -8 -5 -16 -8 -23c-3 -8 -4 -15 -7 -23c-4 -9 -8 -17 -9 -27c-1 -9 0 -18 -1 -27c-2 -9 -4 -16 -4 -25c0 -3 2 -9 2 -11c0 -4 -2 -9 -2 -14c0 -9 2 -18 3 -28c-16 28 -13 56 -8 86s9 59 16 88c13 59 40 117 78 164 c31 41 72 72 126 62c20 -4 42 -13 55 -30c14 -19 13 -43 6 -65c-13 -39 -46 -70 -77 -96c-13 -11 -27 -22 -42 -31c-10 -6 -21 -10 -32 -14l-17 -6c-7 -2 -8 -1 -11 -7c-5 -10 -2 -20 -4 -30c-2 -13 -5 -25 -8 -38c-5 -24 -13 -55 -7 -80c11 -51 95 28 110 42 c10 9 19 19 28 28c5 6 11 11 15 17c0 0 2 5 2 7c12 19 28 37 43 55c18 21 34 43 51 66c9 13 30 50 46 23v-1c1 -1 1 -1 1 0zM135 236c-5 -10 -8 -21 -13 -32c32 17 61 40 84 67l17 22c3 5 8 8 10 14c1 5 -1 9 0 15l4 21c1 10 -3 36 -18 33c-7 -2 -14 -11 -18 -16l-18 -24 c-21 -31 -32 -65 -47 -97c0 0 0 -1 -1 -3z"></glyph><glyph glyph-name="f" unicode="f" d="M413 246c9 -35 -39 -70 -55 -95c-27 -46 -82 -87 -133 -101c-6 -2 -28 -1 -33 -6c-6 -5 -7 -38 -8 -46c-3 -14 -6 -28 -10 -42c-16 -56 -29 -121 -61 -170c-28 -43 -77 -72 -124 -36c-41 31 -41 99 -38 145c6 112 50 214 80 319c28 99 74 192 122 284 c26 51 55 103 88 151c24 34 63 100 109 105c91 10 62 -127 43 -173c-37 -87 -90 -171 -148 -246c-35 -45 -72 -89 -110 -133c-12 -13 -24 -27 -37 -40c-10 -11 -12 -15 -18 -30c-5 -15 -10 -29 -14 -43c-19 -55 -36 -110 -50 -167c-9 -39 -23 -88 -14 -128l-4 3l1 -1 c38 -71 101 68 113 98c18 42 32 85 41 130c2 10 7 25 5 35c-2 12 -12 24 -14 36c-5 22 -5 48 0 71c6 23 25 42 42 14c6 -12 8 -26 10 -39c1 -10 -3 -31 1 -40c6 -14 30 -6 42 0c48 19 86 62 119 100c5 6 47 71 55 46v-1zM142 293l-21 -51c63 71 121 147 169 228 c14 23 110 214 72 225c-13 4 -25 -16 -32 -25c-27 -35 -47 -75 -68 -114c-42 -79 -78 -162 -113 -245c1 1 0 -3 -6 -16v1c0 -1 -1 -2 -1 -3zM10 -39c-13 -38 -28 -85 -23 -128c0 35 15 81 19 100c4 23 10 47 17 69c-5 -13 -9 -27 -13 -41zM146 303c1 3 3 7 3 8z"></glyph><glyph glyph-name="g" unicode="g" d="M510 240c4 -19 -13 -27 -26 -37l-81 -62c-30 -24 -59 -47 -87 -72c-14 -11 -29 -22 -41 -34c-12 -13 -15 -30 -20 -47c-34 -115 -64 -235 -124 -339c-19 -34 -35 -70 -78 -81c-50 -12 -91 28 -109 71c-20 49 0 94 29 136c25 36 52 72 81 105c20 23 42 43 64 63 c21 20 49 40 68 63c18 23 23 66 32 95l22 78c-21 -38 -49 -73 -74 -107c-23 -32 -46 -70 -79 -90c-15 -9 -29 -13 -44 -6c-7 3 -45 37 -41 44c1 -1 2 -2 3 -2l-3 7c2 -10 -10 13 -11 15c-4 13 -5 27 -5 41c0 21 1 44 5 65c3 19 11 37 21 53c1 3 21 36 25 34c1 0 -4 -7 -3 -8 l17 25c-1 -1 -3 -3 -5 -3c-7 4 89 107 99 116c16 16 33 30 53 40c11 6 18 4 27 6c8 1 11 5 18 7c24 6 60 -2 75 -22c11 -12 17 -52 -8 -53c-6 0 -9 4 -14 7l3 -3s-27 1 -39 -1l13 5c-60 -10 -111 -83 -143 -129c9 11 63 78 81 93c-18 -17 -73 -87 -77 -93 c-27 -39 -52 -82 -67 -127c-5 -14 -26 -98 10 -70c26 19 55 53 75 80c-1 -1 -2 -2 -3 -2c-3 0 16 28 19 32l27 41l56 83c8 11 21 33 33 38c41 18 92 -18 67 -60c-27 -47 -55 -97 -71 -147c5 -3 60 48 69 55c22 18 44 36 67 52c17 13 35 24 52 37c9 8 38 37 42 8zM156 -100 c5 14 10 29 14 44c-45 -42 -84 -86 -122 -135c-31 -41 -85 -105 -69 -161c24 -88 90 32 104 61c28 58 48 119 69 180c-1 -2 4 12 4 11zM152 -170v3c-15 -40 -34 -77 -52 -116c9 16 21 31 30 48c9 21 16 43 22 65zM102 200l19 31c-3 -5 -8 -10 -11 -13 c-15 -16 -23 -32 -31 -50c8 11 17 21 23 32zM101 174l12 20c-8 -11 -15 -22 -21 -33z"></glyph><glyph glyph-name="h" unicode="h" d="M496 246c2 0 13 -5 7 -6c4 1 -23 -55 -27 -60c-15 -24 -31 -48 -47 -71c-29 -44 -56 -95 -94 -132c-14 -13 -24 -20 -43 -19c-23 1 -38 11 -53 26c-3 3 -30 26 -27 33l6 -9c-3 5 -5 10 -7 16v-4c-3 -3 -11 33 -11 37c-1 15 2 30 5 45c7 24 14 48 20 72c7 25 20 49 32 73 c2 4 21 43 25 43c0 -1 -4 -10 -3 -11l15 34l-3 -3l29 70c-37 -30 -66 -71 -95 -107c-14 -17 -27 -38 -44 -52c-6 -5 -8 -2 -13 -8c-4 -5 -7 -12 -10 -18c-23 -38 -52 -72 -76 -109l-18 -32c-2 -5 -2 -8 -6 -13c-13 -14 -36 -9 -47 5c-9 10 -10 24 -10 36c-4 44 6 91 14 134 c17 94 40 188 71 279c27 81 68 154 107 230c0 1 5 22 10 25c-1 -1 -7 -19 -7 -19l12 23s-1 0 -2 1c0 18 22 45 32 60c14 23 29 45 45 67c28 39 55 82 93 111c20 15 44 29 70 27c13 0 26 -5 35 -14c4 -4 22 -35 16 -39c0 0 -5 15 -6 15c6 -16 7 -34 6 -50c1 2 1 3 2 3 c5 0 -17 -92 -19 -100c-10 -35 -24 -69 -39 -102c-34 -70 -75 -145 -126 -205c-10 -11 -23 -19 -32 -28c-10 -11 -17 -25 -27 -37c-26 -30 -54 -58 -83 -84c-17 -16 -23 -25 -31 -47c-7 -21 -13 -42 -20 -62c-13 -40 -25 -80 -36 -121c17 26 35 51 54 76l-22 -26 c-2 1 124 155 137 169c30 32 85 101 129 47c25 -31 6 -68 -9 -98c-26 -55 -58 -119 -74 -175c1 1 6 16 9 14c6 -6 -12 -53 -14 -62c-1 -7 -8 -39 0 -44c13 -9 36 18 45 26c36 35 69 74 102 112c12 15 24 31 38 45c3 3 10 13 15 13zM409 919c0 -1 -1 -1 -1 -1 c-36 -57 -67 -119 -98 -179c-28 -55 -59 -112 -83 -167c3 5 6 10 8 11c0 0 -21 -59 -24 -65l-30 -79c72 76 134 161 185 251c-20 -33 -41 -66 -63 -96l-40 -56l-18 -18l8 9c10 12 19 24 28 36c17 24 34 49 50 74c33 52 63 105 87 161c12 29 24 59 32 90c4 15 17 57 3 69 s-34 -24 -42 -36c1 1 0 -1 -1 -3v1c0 -1 -1 -1 -1 -1v-1zM158 429l-1 -3c-1 -5 -5 -21 -3 -21c-3 1 37 106 41 116c8 21 20 39 27 61c8 23 18 43 29 64c13 28 136 263 128 268c-2 1 -98 -182 -107 -202c-20 -42 -46 -82 -62 -126c-18 -52 -43 -103 -52 -157zM227 499 c2 3 4 6 7 9c-3 -3 -5 -7 -7 -9zM409 919l1 1h-1v-1zM158 428c0 -1 -1 -1 -1 -2c0 0 1 1 1 2z"></glyph><glyph glyph-name="i" unicode="i" d="M262 246c4 -19 -14 -41 -24 -54c-17 -25 -33 -49 -52 -73c-20 -27 -45 -70 -80 -78c-8 -1 -46 9 -45 15h2c-8 4 0 -5 -12 4c-9 6 -15 15 -21 24c-11 15 -25 28 -29 46c-1 5 -3 41 5 41c2 0 0 -5 1 -5l3 18c-1 -2 -1 -3 -3 -4c-4 1 15 72 17 78c8 21 12 45 32 57 c15 10 34 8 53 0c8 -3 31 -13 31 -23c0 -6 -5 -7 -8 -10c1 1 3 1 4 1c3 -2 -12 -23 -14 -22c-2 0 1 5 2 8c-19 -31 -35 -66 -47 -101c5 13 30 69 33 68s-66 -121 -32 -138c16 -8 43 17 54 26c19 15 45 34 59 51c-2 -2 -4 -2 -7 -2c-4 5 46 71 55 77c7 5 21 9 23 -4zM87 372 c0 0 -6 9 -6 10c-1 3 -4 34 7 29c0 3 12 18 6 5c9 12 17 26 24 41l-12 -18c9 18 23 55 24 62c0 1 -2 10 0 12c-21 8 -6 20 3 27c-2 0 -3 0 -4 2c-4 4 8 7 11 8c14 6 32 3 45 -4c11 -7 21 -22 25 -34c4 -13 -6 -28 -15 -36c-4 -4 -11 -7 -16 -11c-6 -7 -5 -16 -10 -23 c-3 -5 -9 -7 -12 -12c-4 -3 -4 -6 -1 -9c-4 -2 -7 -4 -10 -7c-10 -16 -16 -25 -28 -34c11 7 18 13 28 26c8 10 17 17 29 22c-10 -11 -12 -24 -24 -32c-12 -7 -1 7 -14 -5c0 0 6 1 3 -1c-9 -8 -18 -21 -30 -26c-6 -2 -10 -6 -17 -3c-7 4 -4 8 -6 11zM68 134c1 2 1 2 0 1 l-2 -8l2 6v1zM101 431l4 6c-2 -4 -4 -6 -4 -6zM91 412c-1 -1 -1 -1 -2 -1c1 0 1 -1 1 -1c1 1 1 1 1 2z"></glyph><glyph glyph-name="j" unicode="j" d="M324 220c-4 2 -2 5 -7 2c1 -2 2 -3 4 -3c-36 -20 -69 -48 -101 -73c-41 -31 -81 -63 -120 -96c-36 -30 -44 -98 -60 -141c-16 -45 -31 -91 -49 -135c-13 -36 -30 -69 -49 -102c-15 -27 -29 -60 -52 -81c-28 -25 -67 -33 -103 -20c-82 30 -65 111 -32 170 c18 32 42 59 63 89c17 24 36 49 58 71c30 31 63 61 96 90c8 8 18 15 25 23c9 9 12 19 16 32l19 59c12 35 23 71 34 106c6 17 11 35 17 51c3 7 4 19 7 24c25 37 106 0 83 -46c-23 -47 -56 -92 -74 -143c45 36 90 71 138 103c16 11 33 21 48 32c10 8 35 35 43 13 c3 -8 1 -19 -4 -25zM-66 -176c2 5 2 6 2 5l44 119c-43 -37 -80 -77 -116 -121c-35 -43 -80 -93 -89 -150c-3 -20 1 -55 25 -61c22 -5 42 25 52 40c32 49 55 103 77 158c1 1 3 9 5 13v-3zM141 363c-9 -2 -28 -20 -32 2c-1 4 0 11 5 10c0 2 11 19 5 5c9 14 16 29 23 45l-9 -16 c9 23 20 71 20 77c1 14 0 14 -10 21c1 -1 2 -3 1 -4c-5 -7 -9 10 -9 13c1 6 8 10 12 12c5 3 12 4 17 5c20 5 55 3 69 -12c3 -3 5 -7 7 -11c4 -11 5 -25 0 -35c-6 -11 -13 -10 -15 -21h-2c-3 -7 -5 -26 -12 -35c-9 -13 -17 -9 -24 -17c-1 0 6 2 3 -1c-10 -9 -18 -21 -28 -31 c-7 -5 -10 -7 -17 -10c-1 -1 -3 4 -4 3zM-5 -101c-4 -4 -6 -10 -10 -13c-6 -5 -9 -27 -12 -35c7 16 20 32 22 48zM-19 -184c2 5 4 11 5 17c-1 -1 -1 -2 -1 -3l-4 -12v5c-4 -8 -10 -16 -12 -26c-2 -5 -2 -10 -3 -15l3 9l3 8l3 5l3 7v-1zM-10 -157c0 0 -1 -1 -1 -2h1v-1 c4 9 8 20 11 29l3 6l-2 -2c-6 -6 -9 -19 -12 -30zM125 396c0 0 3 4 6 9c-2 -7 -4 -10 -6 -9zM-6 -148c0 2 1 4 2 6zM-3 -138l-1 -4c0 2 0 3 1 4zM-11 -161v1l-1 -1h1zM116 375c0 -1 -1 -1 -1 -1h1v1z"></glyph><glyph glyph-name="k" unicode="k" d="M529 242v-1c2 -26 -18 -40 -33 -57c-14 -18 -28 -37 -45 -54c-20 -21 -38 -44 -61 -61c-2 -2 -47 -27 -50 -31v2c-8 -6 5 0 -7 -10c-10 -8 -21 -12 -32 -17c-13 -5 -25 -15 -39 -16c-7 0 -50 15 -44 24c1 2 4 -2 5 -1c-5 3 -9 7 -13 12c0 -1 1 -3 1 -4 c-2 -2 -31 38 -33 43c-10 18 -18 42 -22 63l-48 -80c-12 -18 -17 -50 -40 -55c-2 0 -29 -7 -36 3c2 -3 11 -4 18 -4c-8 1 -18 4 -23 8c0 -1 1 -2 1 -2c0 -1 -17 13 -19 15c-7 10 -9 23 -9 35c0 22 7 44 11 66c11 50 26 100 34 151c9 47 21 93 36 138c8 25 16 49 25 73 c2 6 18 54 23 54c0 0 -6 -19 -5 -20c7 20 13 39 21 59c0 0 1 1 1 2c3 7 6 20 9 28l20 42c10 24 22 47 35 69c20 35 47 74 85 91c46 21 88 -16 109 -57c11 -23 14 -42 6 -65c-14 -42 -38 -86 -66 -119c-23 -25 -38 -64 -58 -94c-27 -41 -54 -82 -84 -120 c-13 -17 -27 -34 -41 -51c-16 -19 -22 -33 -29 -57c-14 -47 -27 -94 -38 -141l27 47c2 4 18 26 18 25c6 11 13 22 20 32c-1 -1 -20 -24 -20 -24c-2 12 20 37 27 47c11 18 24 35 36 53c27 36 56 71 90 101c35 31 100 83 146 44c46 -40 16 -89 -19 -124 c-32 -31 -71 -56 -110 -77c-21 -12 -42 -23 -64 -32c-4 -2 -19 -6 -21 -8c0 -1 4 -21 1 -22c-1 0 -3 3 -4 6c6 -35 18 -74 41 -100c-6 10 -29 55 -30 65c3 -13 37 -74 51 -76c4 -1 7 0 10 0c32 2 58 35 81 53c23 17 53 35 72 54c-2 -2 -5 -2 -7 -2c-3 5 62 77 67 82 c9 8 22 13 23 -5zM312 730c-39 -52 -62 -117 -85 -177c-24 -64 -43 -129 -61 -194c55 72 106 147 150 227c11 20 22 40 32 61c-9 -16 -17 -31 -25 -44c-15 -28 -31 -55 -48 -82l-22 -35c-5 -6 -13 -15 -17 -22c6 15 19 29 29 44l27 44c19 32 38 65 53 99c11 23 42 80 24 104 s-47 -11 -57 -25zM212 215c51 20 96 61 133 101c8 9 65 74 49 86c-17 12 -67 -45 -76 -55c-39 -41 -73 -86 -106 -132zM218 574c-25 -60 -41 -127 -54 -190c0 -1 -1 -1 -1 -2l1 1l-2 -8c13 50 29 98 45 148c14 42 26 84 42 125c2 6 17 28 22 41c-5 -9 -15 -22 -16 -26 c-14 -30 -25 -60 -37 -89zM146 577c0 0 0 -1 -1 -1zM145 575v1v-1z"></glyph><glyph glyph-name="l" unicode="l" d="M400 255c23 24 25 -13 21 -29c-6 -22 -19 -42 -31 -62c-30 -48 -56 -99 -89 -147c-36 -52 -75 -105 -121 -150c-39 -37 -93 -66 -140 -23c-42 39 -42 109 -39 162c4 56 19 110 32 164c1 2 0 26 5 33c-1 -2 -1 -9 -2 -15c2 7 4 14 7 21h-3c-3 20 11 51 17 70 c7 23 15 47 23 70c15 43 31 85 45 128c13 43 33 84 53 124c9 19 19 38 30 57c3 5 25 48 30 47l-8 -17l32 55l-1 -1c5 8 12 23 17 29l23 31c14 17 31 41 54 48c44 14 80 -32 86 -71l1 -1v-5c6 -61 -30 -133 -57 -185c-16 -32 -33 -71 -58 -97c-17 -19 -26 -39 -40 -62 c-38 -61 -79 -122 -124 -178c-11 -14 -18 -23 -23 -41c-6 -19 -11 -38 -16 -58c-6 -20 -11 -40 -16 -60c-2 -9 -11 -37 -10 -39c-3 -12 -5 -25 -6 -37l8 30c5 -8 -3 -38 -4 -47c-2 -15 -3 -31 -3 -47c0 -19 0 -62 25 -66c34 -4 70 47 87 68c41 49 75 104 109 158l52 85 c11 18 20 43 34 58zM275 613c-37 -89 -66 -185 -95 -273c74 119 158 244 203 378c-17 -48 -42 -94 -65 -138c-14 -25 -27 -50 -42 -75c-9 -15 -27 -38 -33 -54c8 26 32 56 46 80l42 78c24 48 60 107 62 163v1c2 53 -43 -7 -50 -18c-28 -45 -48 -94 -68 -142zM243 683 c-11 -21 -21 -41 -30 -63c-1 -1 -1 -3 -1 -4c22 40 48 78 69 120c-10 -18 -28 -34 -38 -53zM54 166c1 1 1 4 -1 3c-4 0 -9 -21 -12 -44v1c-7 -35 -11 -72 -13 -108l3 32v-3c0 7 2 13 3 20c6 30 7 68 19 96c0 0 0 1 1 3z"></glyph><glyph glyph-name="m" unicode="m" d="M608 240c6 -26 -21 -59 -34 -78c-25 -36 -50 -73 -78 -107c-19 -25 -54 -72 -89 -73c-7 -1 -49 13 -47 21l1 -1c-2 1 -2 3 -3 5c0 -2 -14 12 -16 17c-6 11 -9 24 -11 36c-3 20 -3 39 -3 58c0 21 3 40 10 60c1 4 19 60 25 59c1 0 -3 -8 -1 -9c3 10 7 20 11 31 c-1 -2 -2 -4 -4 -6c-1 1 27 69 32 80c-33 -31 -50 -74 -83 -106c-21 -21 -37 -61 -54 -89c-14 -24 -27 -60 -59 -29c-9 8 -14 19 -16 31c-1 13 4 26 7 38c3 11 0 15 1 27c4 36 27 71 40 105c3 11 35 72 19 73c-2 1 -17 -20 -20 -23c-12 -14 -24 -29 -34 -44 c-33 -51 -54 -102 -82 -155c-11 -21 -20 -42 -30 -62c-4 -10 -11 -19 -14 -29c0 -3 -1 -11 -2 -13c-10 -18 -49 8 -59 20c-21 25 -13 48 -14 76c-2 37 12 73 24 108c5 17 12 34 20 51c5 9 13 17 17 27c3 5 -1 10 8 14c7 3 17 -3 23 -8c8 -7 13 -20 18 -26 c5 -7 15 -12 11 -26c0 -2 -2 -4 -3 -6c-6 -10 -15 -19 -22 -29c-3 -4 -8 -10 -9 -15c-2 -7 0 -10 -2 -17c-3 -14 -11 -26 -14 -40c-2 -9 -6 -20 -6 -29c0 -10 4 -18 2 -29c15 24 22 54 36 80c16 32 32 66 51 97c16 25 35 49 51 75c13 21 35 51 61 54c36 5 64 -39 56 -71 c-7 -25 -22 -50 -31 -74c-12 -35 -22 -71 -32 -106c12 25 27 49 43 74l-20 -27c-1 7 82 115 92 125c27 26 84 54 99 -1c13 -48 -12 -104 -29 -147c-16 -38 -39 -83 -47 -121c1 2 2 4 4 6c0 0 -7 -48 2 -50c19 -4 58 50 69 62c27 30 53 62 79 93c5 6 49 66 56 44 c1 -2 0 -1 0 -1zM249 306l1 1v-1c6 15 24 62 18 76c4 -16 -20 -78 -24 -86c-10 -23 -22 -46 -30 -70c-7 -20 -14 -47 -14 -70c2 22 12 46 20 66c10 27 16 56 28 81c0 0 1 2 2 3h-1z"></glyph><glyph glyph-name="n" unicode="n" d="M414 238c4 -24 -34 -58 -46 -74c-22 -28 -42 -58 -66 -84c-18 -19 -48 -51 -76 -42c-6 2 -43 22 -42 27l3 -2l-6 6c5 -8 -6 2 -7 2c-5 5 -9 13 -12 19c-5 11 -6 22 -6 33s2 22 3 33c2 23 3 43 10 65c2 5 23 61 30 59c2 0 -3 -7 -2 -8l14 28c-2 -2 -3 -4 -5 -5 c-1 1 12 24 15 29c-20 -23 -36 -47 -54 -71c-13 -17 -29 -28 -38 -44c-21 -36 -47 -69 -64 -106l-4 8c-18 -22 -45 4 -55 21c-9 16 -6 28 -4 46c2 16 1 32 6 49c6 21 14 41 22 62c7 21 14 42 22 63c5 13 15 29 18 43c3 11 0 18 13 26c12 7 25 6 38 4c16 -3 45 -20 28 -45 c-7 -9 -19 -19 -27 -29c-9 -11 -8 -16 -12 -29c-2 -8 -10 -15 -14 -23c-6 -11 -10 -25 -14 -38c-2 -8 -1 -14 -2 -22c-2 -21 -9 -42 -11 -63c1 4 8 11 9 10s-10 -18 -9 -18l59 86l-23 -29c-3 2 116 154 130 167c29 27 66 26 80 -21c16 -50 -36 -83 -60 -119 c-13 -20 -24 -44 -34 -65c-7 -13 -22 -42 -24 -64c2 15 13 33 17 43c8 21 19 38 35 53c-7 -13 -15 -25 -21 -37l5 6c2 0 -9 -34 -10 -36c-4 -12 -8 -25 -9 -38c-1 -1 0 -17 0 -17l1 -1c0 1 7 2 9 3c15 5 30 19 42 29c24 19 47 40 70 60c17 16 39 32 53 49c6 9 20 25 25 1z "></glyph><glyph glyph-name="o" unicode="o" d="M460 249c29 -37 -88 -45 -99 -47c-2 0 -15 -4 -14 -3c-10 -4 -8 -3 -15 -12c-8 -12 -15 -25 -22 -37c-4 -4 -40 -57 -47 -54c0 0 8 10 7 11l-29 -34c3 3 5 4 5 3c-6 -17 -39 -37 -54 -48c-16 -12 -36 -23 -57 -26c-20 -2 -42 2 -61 11c-59 29 -94 109 -62 170 c17 32 29 68 53 100c14 17 29 34 48 46c8 6 17 11 27 15c7 4 22 5 27 9c6 4 12 30 16 38s9 16 14 23c14 20 31 40 52 52c34 19 68 0 93 -25c0 0 17 -11 16 -17l-4 4l4 -8l1 -1c-3 8 9 -7 9 -7c5 -8 8 -17 10 -26c3 -14 2 -29 0 -43c-4 -37 -15 -75 -26 -111 c30 5 60 12 89 18c7 2 14 7 19 0c1 -2 0 -1 0 -1zM114 47c70 13 124 94 153 152c-44 6 -98 25 -109 75c-7 -8 -21 -32 -36 -62l6 9c-2 -10 -98 -186 -15 -174h1zM311 324c5 25 19 74 4 100c-20 31 -57 -14 -72 -34c-1 0 -1 -1 -1 -1l-1 -2v1c-1 -2 -2 -3 -1 -3 c-5 -7 -11 -13 -17 -24c1 1 12 19 13 16c3 -6 -16 -38 -19 -44c-6 -16 -11 -32 -13 -49s-4 -36 10 -48c8 -7 21 -9 32 -10c6 -1 19 -3 25 -1c10 2 7 -1 12 9c15 25 21 62 28 90zM242 389c0 0 1 0 1 1z"></glyph><glyph glyph-name="p" unicode="p" d="M566 248c3 2 8 2 12 3c-8 -27 -33 -36 -51 -52c-14 -13 -34 -27 -50 -38c-13 -9 -27 -6 -37 -16c-1 0 -1 1 -1 1c-3 -3 -6 -8 -13 -12c-9 -6 -13 -12 -21 -18c-14 -10 -24 -6 -34 -11h1c-7 -3 -53 -58 -57 -64c-16 -18 -33 -34 -48 -51c-13 -14 -40 -47 -62 -47 c-24 0 -46 44 -52 63c-9 27 4 18 21 22c24 6 45 36 61 53c21 23 40 48 61 72c8 8 16 16 22 26c1 3 6 20 10 20c0 0 -1 -4 -3 -7l6 9c-3 -2 5 17 6 18c5 11 11 21 17 32c11 20 24 42 29 65c3 11 11 53 -11 49c-8 -1 -54 -37 -56 -36c-1 1 6 7 5 8c-8 -8 -17 -17 -25 -27 c2 2 4 3 6 4c-8 -7 -88 -119 -95 -129c-16 -22 -29 -46 -44 -70c-8 -12 -15 -27 -25 -38c-5 -4 -11 -6 -14 -10c-11 -15 -20 -38 -30 -56c-13 -22 -25 -46 -39 -68c-12 -22 -18 -45 -26 -69c-6 -17 -13 -32 -18 -48c1 3 3 6 5 8c3 1 -5 -36 -6 -38l-9 -46 c-7 -33 -12 -67 -18 -100c-1 -12 -1 -35 -11 -45c-22 -21 -50 14 -59 31c-26 48 -2 126 6 178c5 34 12 69 25 101c5 10 10 18 14 29c0 1 2 22 5 23c0 -1 1 -2 1 -3c0 2 1 4 2 7c-5 -9 0 15 0 16c3 11 7 21 10 31c7 19 12 37 16 56c2 8 27 92 37 90c2 0 -2 -7 -1 -8 c4 9 7 18 10 27c-1 -2 -2 -4 -4 -5l41 115c8 20 13 40 20 61c1 4 6 13 6 18c0 4 -5 6 -5 10c-2 26 14 53 47 44c17 -4 29 -18 36 -33c9 -17 4 -24 1 -39l3 5c4 0 -4 -42 -10 -41c-1 0 3 15 3 18c-8 -28 -17 -55 -26 -82v1l-6 -17c-1 -3 -2 -7 -4 -10 c-24 -70 -62 -189 -66 -204c8 16 17 32 26 47l-16 -23s100 162 110 177c36 54 72 110 113 162c18 22 49 63 82 61c54 -4 67 -65 66 -105c1 5 2 14 4 13c15 -8 -8 -82 -12 -94c-11 -33 -28 -66 -46 -97c20 11 38 24 57 37c17 11 39 12 56 19c-1 0 -3 1 -3 2c-3 8 49 24 55 25 zM54 146c0 0 0 1 -1 2c2 -8 -17 -48 -19 -53c-16 -41 -36 -82 -49 -124c-14 -46 -32 -94 -43 -143c9 35 21 70 34 102c16 38 31 78 44 118c6 19 12 38 19 57c5 12 14 27 15 40v1zM98 116c-4 -11 -7 -23 -10 -33c4 10 7 21 10 33zM235 280c-7 -9 -13 -19 -19 -28zM398 159 l9 6c-3 -2 -8 -3 -9 -6zM159 276l-3 -8c1 4 2 7 3 8zM152 259l4 9zM204 234c1 2 2 4 1 3c0 -1 0 -1 -1 -2v-1zM152 259l-2 -4c1 1 2 2 2 4zM-60 -181c1 1 1 1 1 2c-1 -1 -1 -1 -1 -2zM104 128l-1 -1s1 0 1 1z"></glyph><glyph glyph-name="q" unicode="q" d="M487 245c1 -9 -10 -11 -15 -16l-8 -11c-9 -9 -23 -22 -35 -25c-10 -2 -10 4 -17 -2c-1 1 0 2 1 2c-3 -1 -13 -11 -20 -15c-13 -6 -19 -1 -27 -5c0 0 5 -1 3 -2c-14 -4 -34 -16 -36 -26c-3 -10 0 -24 -1 -34c-1 -15 -2 -30 -4 -44c-3 -28 -7 -55 -11 -82 c-8 -56 -15 -113 -32 -167c-8 -23 -18 -43 -30 -63c-2 -5 -15 -42 -21 -42c0 0 6 11 6 12c-3 -5 -6 -9 -10 -13c4 1 -4 -13 -6 -15c-4 -6 -10 -10 -17 -12c-4 -2 -8 -3 -12 -3c-17 -1 -34 7 -45 18c-24 22 -34 61 -33 93c0 9 7 90 17 89c2 0 -1 -9 0 -10c2 10 2 20 5 30 c-7 2 64 193 71 211c-25 -36 -77 -97 -124 -102c-22 -2 -45 8 -60 23c-13 13 -17 26 -19 43c0 0 -7 31 -5 32c0 0 1 -4 2 -7v8c-2 -1 -4 14 -4 15c0 9 3 17 5 25c4 15 11 28 17 42c7 20 13 36 25 53c2 2 30 39 35 37c1 -1 -4 -6 -3 -7l15 19c-1 -1 -3 -1 -4 -1 c-6 4 85 87 93 93c24 18 44 30 73 30c25 0 62 0 77 -30c6 -12 8 -38 -8 -44c-10 -4 -12 3 -18 6l2 -3c-1 -1 -33 4 -37 2c2 2 17 4 16 4c-55 -2 -103 -64 -133 -103c7 8 78 86 83 80c-5 5 -84 -87 -89 -94c-28 -38 -52 -80 -61 -125c-3 -11 -14 -52 2 -57h1 c17 -6 58 30 72 43c-2 -1 -4 -3 -7 -3c0 0 33 39 37 43c18 20 36 39 53 59c5 6 14 12 19 18c14 18 20 43 34 61c7 10 14 17 28 17c16 0 47 -14 52 -32c3 -11 -2 -15 -8 -21l4 2s-30 -47 -34 -46c-1 1 6 12 9 19l-13 -22c4 1 5 -1 1 -4l26 10c-5 -1 -13 -2 -15 -2 c8 3 47 22 51 25c8 5 11 8 21 10c7 2 17 0 21 2c-13 2 14 13 15 14c5 2 15 8 22 7c4 -1 7 -1 8 -7zM298 85v1l5 36c-30 -58 -56 -118 -78 -179c-21 -56 -42 -117 -43 -177c0 -22 3 -48 25 -27c20 20 29 52 39 78c6 20 15 42 20 63c-1 -4 -2 -8 -3 -7c-6 6 7 41 8 49l9 49 c7 38 12 76 18 114zM196 -102c-8 -20 -58 -172 -13 -175c-39 7 11 154 18 171l41 113c-15 -35 -33 -71 -46 -109zM267 63c-5 -4 -6 -7 -3 -8c1 1 3 2 3 3l-27 -66c19 46 41 91 64 135v6c-13 -24 -25 -48 -36 -72c0 1 -1 1 -1 2zM224 -48v1l-1 -2s1 0 1 1zM268 60l-1 -2 c1 1 1 1 1 2zM368 234c0 0 1 1 1 2c0 -1 -1 -1 -1 -2z"></glyph><glyph glyph-name="r" unicode="r" d="M410 243c3 -14 -7 -31 -13 -43c-8 -17 -18 -33 -29 -49l-72 -102c-24 -33 -50 -66 -82 -93c-6 -4 -52 -41 -55 -40c0 1 1 2 2 3l-7 -3c5 1 -14 -12 -19 -14c-14 -3 -29 1 -41 9c-13 8 -20 20 -26 34c-10 22 -11 43 -7 67c1 5 15 63 22 62c2 0 -2 -8 -1 -9l7 25 c-3 1 50 113 55 120c-30 -6 -68 -5 -89 21c-6 8 -4 15 -6 21c-3 8 -7 12 -9 19c-10 49 47 117 95 84l-2 3c1 6 13 -9 14 -14c0 -4 -8 -32 -13 -30c-1 0 6 18 6 19c-7 -19 -28 -40 -30 -60c-2 -15 6 -15 19 -18c19 -5 49 -2 73 -9c-16 5 -35 6 -48 8c0 0 -1 0 -1 1 c15 -2 31 -2 44 -5c29 -7 47 -18 35 -49c-12 -29 -27 -58 -40 -87c-12 -28 -22 -58 -33 -87c-3 -10 -25 -52 -17 -62c10 -12 65 38 80 54c-3 -3 -6 -3 -8 -5c-2 0 20 28 23 32l29 37l54 71l55 74c5 6 29 41 35 15zM111 123c-12 -28 -24 -57 -31 -87c7 26 18 51 28 75l19 44 c5 9 26 58 31 61c-7 -2 -21 -38 -23 -41c-9 -17 -17 -34 -24 -52zM87 -69v-1c-1 1 -2 2 -2 3l1 -1c-5 11 -10 22 -12 28l3 -13l-4 21v1c-1 2 -1 3 -1 3s0 -1 1 -2v5c-1 14 0 27 2 40v1c-2 -9 -3 -17 -3 -27c-1 -12 0 -26 3 -38c1 -3 9 -20 15 -28c0 1 0 2 -1 2 c6 -6 14 -11 23 -14c-11 4 -19 12 -25 20zM115 261c-2 1 -4 6 -4 8c1 -2 7 -7 7 -7c5 -4 12 -6 20 -7c-9 1 -18 2 -23 6zM220 183v1l-21 -45zM76 19c0 -1 -1 -1 -1 -2v-1c0 1 1 2 1 3zM221 186l-1 -1h1v1zM221 186l-1 -1h1v1zM77 32c0 1 1 2 1 4c0 -2 -1 -3 -1 -4zM81 -60 c0 -1 1 -1 1 -2c0 1 -1 2 -1 2zM112 271l-1 -1s0 1 1 1z"></glyph><glyph glyph-name="s" unicode="s" d="M397 235v-1c4 -32 -46 -58 -67 -73c-29 -21 -58 -41 -90 -58c-8 -4 -20 -8 -28 -14c-11 -9 -9 -8 -7 -24c3 -18 5 -36 5 -55c1 -28 -2 -56 -12 -83c-24 -62 -72 -102 -141 -100c-61 1 -126 33 -113 99c-1 -2 -4 -19 -5 -18c-7 4 0 26 2 31c12 37 44 66 74 89 c17 13 34 26 51 37c13 8 43 20 45 34c3 14 -10 44 -14 59c-4 19 -11 39 -13 59c-1 13 3 21 0 33c-5 16 -10 31 -11 48s-1 34 5 50c8 24 61 79 88 54c0 5 13 -14 14 -20c0 -4 -4 -41 -10 -40c0 0 2 9 3 16c-5 -14 -13 -27 -14 -42c-2 -13 1 -28 3 -40c0 2 0 4 2 5 c-1 0 10 -52 19 -94c-7 27 -16 59 -20 78c8 -44 18 -87 28 -130c1 1 2 3 1 8c1 -3 2 -5 2 -6c44 22 85 43 126 69c18 12 37 32 56 41c10 4 18 2 21 -12zM-7 -109c14 -5 30 -2 44 1l28 11c1 -1 -8 -7 -8 -8c12 7 22 16 31 27l-5 -4c8 8 27 48 28 52c7 24 7 48 6 72 c-2 -2 -5 -3 -7 -4l7 6l-12 -7c6 2 -13 -13 -16 -15l-30 -20c-20 -14 -42 -29 -57 -49c-9 -13 -35 -54 -9 -62zM119 -138c26 12 40 29 51 51c-29 -41 -80 -65 -129 -68c27 1 52 6 78 17zM192 146c-2 6 -4 17 -6 28c3 -11 5 -21 6 -28zM205 42c0 1 -1 3 -1 5c0 -2 0 -4 1 -5z "></glyph><glyph glyph-name="t" unicode="t" d="M406 520v-1c1 -14 -16 -25 -28 -28c-13 -4 -28 4 -40 2c-7 -2 -5 -5 -11 -7c-9 -3 -20 -2 -29 -2c-13 0 -41 7 -52 0c-2 -1 -4 -3 -6 -6l3 6c-6 -1 -16 -28 -23 -46l11 22l-14 -38c-10 -21 -19 -43 -28 -64c-18 -42 -34 -83 -50 -126c-27 -78 -54 -160 -72 -241 c-3 -14 -20 -72 -1 -80c3 -2 24 10 23 9c5 5 11 10 16 16c-4 -3 -15 -12 -15 -10c-1 6 24 26 28 31c10 10 19 21 28 31l58 71l106 136c8 10 26 45 39 48c16 3 19 -13 14 -26c-9 -27 -36 -49 -50 -73c-25 -42 -55 -81 -84 -121c-32 -43 -64 -86 -99 -127 c-16 -20 -37 -48 -62 -60c-19 -9 -44 2 -60 14c-18 12 -28 30 -32 50c-1 6 -7 38 -1 45v-15l2 20c-2 -4 -2 9 -2 11c0 8 2 17 4 25c2 16 6 31 10 47c7 31 15 62 21 94c5 32 16 62 26 92c2 5 22 66 27 66c1 0 -2 -12 -2 -13c4 15 10 30 15 45c-2 -5 -5 -10 -5 -8 c0 12 13 33 17 44l12 35c11 32 22 64 36 94c-28 -2 -55 0 -81 -5c-38 -7 -86 -3 -124 2c-5 1 -29 2 -23 13c2 3 24 8 28 9c19 7 39 7 59 8c39 4 77 2 116 7c10 1 27 -2 36 2c9 3 9 10 13 19c7 18 15 36 23 53c9 19 17 39 29 56c8 11 16 14 22 26c12 27 26 54 45 77 c20 26 55 30 86 24c15 -3 36 -12 29 -32c-3 -8 -13 -13 -19 -19c0 -1 9 9 9 5c-1 -7 -38 -58 -41 -57c-1 0 14 25 15 27c-38 -56 -70 -117 -100 -178c3 0 6 4 10 11c-3 -6 -5 -10 -5 -11c39 2 79 2 119 4c8 0 23 11 24 -3zM216 462c40 85 76 173 130 250 c-80 -113 -130 -247 -186 -372c-33 -73 -61 -149 -83 -226c-10 -35 -18 -70 -25 -106l5 19c11 47 27 94 44 139c36 99 70 201 115 296zM282 561c10 23 19 45 24 46zM179 343c0 1 0 2 1 4c-9 -20 -16 -40 -24 -59c8 18 16 36 23 55zM269 532c3 6 7 14 10 22zM51 -98l-3 2 c1 -1 2 -2 3 -2z"></glyph><glyph glyph-name="u" unicode="u" d="M473 244c1 -12 -15 -34 -21 -44c-14 -24 -33 -46 -52 -67c-29 -31 -71 -82 -118 -85c-22 -2 -45 9 -57 29c-21 38 1 86 14 121l-76 -94c-7 -9 -83 -86 -93 -73c0 1 9 5 8 6c-10 -6 -21 -11 -32 -11c1 -1 3 -1 5 -1c2 -7 -27 4 -30 6c-11 10 -16 26 -19 40 c-5 32 0 64 8 95c8 32 16 63 30 94c7 16 19 24 26 38c11 25 25 57 47 75c18 16 50 13 68 -1s8 -21 0 -35c2 3 4 5 6 6c2 0 -22 -49 -27 -48c0 0 3 10 6 16c-13 -23 -25 -47 -36 -71c2 3 4 4 6 4c-2 1 -38 -92 -41 -100c-4 -15 -22 -59 5 -50c29 8 57 48 75 69 c24 27 44 56 65 86c22 33 48 88 99 74c45 -13 11 -61 -3 -89c2 2 4 5 5 4c6 -7 -14 -45 -17 -55c-6 -19 -14 -41 -15 -62c-1 -24 6 -17 22 -5c34 27 62 61 91 92c2 2 48 55 51 36zM321 224c7 21 17 41 25 63c-10 -25 -40 -57 -32 -82c0 -1 0 -2 -1 -3c1 1 2 2 2 3 c3 5 4 13 6 19zM83 95c-2 9 12 57 26 96c-11 -27 -32 -67 -26 -96zM239 193c1 3 2 6 4 9c-3 -2 -4 -5 -4 -9z"></glyph><glyph glyph-name="v" unicode="v" d="M488 239c2 -7 -5 -13 -9 -18c-11 -15 -24 -28 -38 -40c-7 -7 -12 -16 -19 -23c-43 -49 -169 -83 -166 17c-33 -46 -75 -82 -105 -131c-17 -27 -28 -49 -34 -80c-1 -12 -3 -24 -9 -34c-15 -23 -42 -19 -61 -5c-27 20 -25 63 -23 95c0 12 7 24 8 34c0 0 -2 18 -1 16 c-1 3 -3 6 -3 16c0 11 2 20 0 31c-1 13 -4 21 -1 35c0 2 5 14 5 14c0 -1 0 -3 1 -3c0 3 0 7 -1 11l-1 -1c3 5 -15 62 -12 74c4 15 14 17 24 23c4 3 12 11 21 14c11 4 27 5 35 -6c6 -7 1 -9 4 -15c-1 3 4 4 5 1s2 -17 1 -16l-3 7c5 -17 7 -35 9 -52v-1l2 -30c0 2 -1 15 -1 27 c4 -41 12 -115 11 -125c11 16 22 32 34 47c5 8 12 14 18 20c6 7 6 14 10 20c10 18 28 31 41 46l33 34c21 24 40 53 70 71c19 13 64 12 60 -20c-2 -8 -6 -12 -12 -17c-18 -16 -41 -24 -58 -42l-18 -19l-6 -4c-2 -6 2 -5 1 -7c-5 -14 -23 -45 -6 -54c8 -4 28 -3 36 -1 c14 2 27 16 41 22c14 7 25 16 37 26c4 3 76 93 80 43zM109 194c1 16 -1 32 -4 47c-1 6 -2 13 -5 18c-1 1 -10 14 -10 11c0 -4 6 -10 7 -14c3 -7 4 -15 5 -23c2 -17 2 -32 1 -49c-1 -20 2 -42 1 -61c3 23 4 47 5 71zM103 107c1 3 1 4 -1 4c-1 -3 0 -4 1 -4zM118 132 c1 5 1 10 0 15v-15zM115 212c0 9 -1 15 0 15v-15zM116 200c0 1 -1 2 -1 4v-1v-1c0 -1 0 -1 1 -2z"></glyph><glyph glyph-name="w" unicode="w" d="M683 235c2 -16 -25 -38 -33 -46c-28 -29 -58 -65 -100 -78c-20 -7 -40 0 -60 -4c-2 0 -5 1 -7 1c-2 -5 -4 -10 -7 -15l-8 -20l-17 -37c-11 -22 -26 -47 -45 -64c-4 -3 -34 -35 -35 -34c0 1 0 2 1 3l-5 -3c4 1 -10 -14 -11 -15c-10 -8 -23 -13 -35 -15 c-18 -3 -42 -2 -58 6s-24 25 -29 42c-1 4 -8 46 -2 47c2 0 1 -7 3 -7c-1 8 -1 17 -1 26l-2 -4c-7 0 18 125 20 136c-28 -37 -55 -77 -86 -110c-16 -16 -34 -31 -55 -40c-4 -1 -32 -15 -33 -14l6 3l-10 -3c8 0 -10 -6 -12 -6c-8 -1 -16 0 -23 3c-12 4 -19 13 -26 24 c-9 17 -14 36 -13 56c0 2 8 53 14 52c2 0 -1 -6 1 -6c1 7 2 15 4 21c0 -1 -2 -2 -2 -2c-4 1 31 100 34 108c7 20 13 42 24 60c4 7 12 10 14 13c5 5 4 11 7 16c12 23 45 35 68 20c9 -6 18 -17 15 -29c-1 -6 -6 -7 -9 -12l3 3c4 -1 -12 -34 -15 -33c-1 0 5 15 4 15 c-22 -48 -44 -96 -61 -146c3 7 39 98 42 97c2 -1 -96 -201 -46 -210c16 -3 40 27 50 36c24 23 53 52 72 77c-2 -2 -4 -3 -6 -4c-2 0 22 37 25 41c9 14 19 27 29 41c11 16 21 35 33 50c16 18 44 27 65 12c9 -6 17 -15 15 -27c-1 -7 -8 -9 -11 -14l5 3c2 0 -11 -39 -15 -38 c-1 0 1 8 2 13c-19 -54 -34 -111 -43 -168c3 17 25 115 30 114c2 -1 -67 -211 -16 -216c24 -3 53 67 63 84c12 20 23 40 34 60c5 8 26 35 25 41l-4 -3c1 0 2 52 3 56c5 22 13 42 25 61c13 20 32 40 49 56c3 2 4 5 7 6c12 5 24 -4 28 -16c5 -18 -7 -33 -17 -46 c-22 -33 -32 -73 -47 -110c12 0 29 -3 40 5c8 4 16 13 27 17c20 10 40 25 55 42c9 10 14 24 26 33c11 7 35 16 37 -5zM243 22c-3 -35 1 -91 37 -107c-33 16 -33 67 -31 99c1 26 5 53 10 81c-7 -24 -14 -48 -16 -73zM294 198c2 5 6 11 9 16c-14 -16 -21 -37 -27 -58 c5 14 10 28 17 41c0 -1 0 -1 1 1zM90 113l-8 -32s1 1 1 0z"></glyph><glyph glyph-name="x" unicode="x" d="M443 238c1 -27 -25 -51 -37 -71c-18 -31 -38 -58 -61 -87c-22 -28 -44 -59 -71 -84c-14 -12 -28 -21 -44 -29c-2 -2 -24 -20 -26 -19l2 2l-5 -2c6 1 -11 -11 -12 -12c-5 -2 -10 -4 -16 -4c-3 -1 -5 0 -9 0c-27 2 -60 24 -73 49c-19 -27 -45 -61 -77 -73 c-17 -7 -50 4 -34 26c4 6 14 8 20 11c12 6 22 15 32 24c11 12 20 26 31 39c6 7 11 11 13 19c0 2 -3 15 -2 16c2 0 2 -6 4 -6l-6 25c0 -2 0 -4 -1 -6c-4 -1 -15 102 -15 111c-1 21 -3 42 -2 62c1 18 6 28 11 42c7 17 10 28 29 38c11 7 25 12 39 10c10 -1 22 -6 26 -17 c3 -10 -4 -13 -5 -21c0 1 1 3 3 4c2 0 -1 -38 -5 -38c-1 0 0 17 0 17c-5 -48 -8 -96 -8 -144c5 8 0 87 6 87c0 0 -3 -75 -3 -82c1 1 23 30 27 28c2 -1 -2 -3 -1 -5l10 14c-1 -1 -2 -2 -4 -2c-2 2 55 77 63 85c12 13 18 11 30 17c11 6 18 18 35 19c3 0 6 1 9 0 c10 -1 26 -14 16 -25c-6 -6 -10 0 -16 -2c1 0 2 0 4 -1c1 -4 -22 -10 -23 -9c0 1 9 7 9 7c-32 -14 -57 -46 -79 -72c4 4 29 31 43 44c-23 -24 -83 -104 -88 -113c-6 -11 -11 -22 -18 -32c-11 -14 -16 -18 -14 -37c2 -15 5 -51 21 -58c17 -9 41 18 51 27c32 25 71 57 96 87 c-2 -1 -4 -3 -7 -4c0 0 31 45 35 50l47 63c6 9 23 42 33 45c8 3 16 -5 17 -13zM146 56c-4 -4 1 -23 4 -34c-2 9 -3 18 -4 27v7z"></glyph><glyph glyph-name="y" unicode="y" d="M583 239c2 -19 -16 -28 -29 -38l-87 -69c-31 -25 -62 -51 -92 -78c-12 -11 -32 -23 -42 -37s-14 -44 -20 -61c-37 -117 -72 -240 -136 -346c-20 -32 -36 -66 -77 -76c-45 -12 -95 11 -122 48c-40 52 4 113 36 156c31 41 62 83 97 120c25 26 52 51 79 76 c19 19 52 41 65 65c16 30 22 71 33 104c8 28 17 56 26 84c-16 -12 -29 -35 -44 -50l-66 -66c-21 -22 -46 -45 -75 -57c-6 -2 -42 -18 -43 -17l2 2l-6 -2c7 0 -12 -8 -16 -8c-11 -2 -23 0 -32 5c-19 10 -32 35 -34 55c-1 7 3 71 13 70c2 0 -1 -6 1 -7c1 7 2 15 4 22l-2 -2 c-5 1 30 101 33 110c8 20 14 42 25 61c4 6 9 8 12 14c2 2 5 9 8 13c11 23 39 37 63 27c11 -4 26 -18 23 -31c-2 -6 -7 -8 -10 -12c1 0 2 1 3 1c3 -1 -12 -34 -15 -33c-2 0 1 8 2 12c-22 -46 -43 -94 -59 -143c7 18 39 97 42 96s-96 -193 -48 -208c17 -6 49 26 60 35 c27 21 61 45 83 68c-2 -1 -4 -3 -7 -3c1 0 48 57 55 65c17 19 46 41 54 66c4 14 6 24 27 28c24 4 60 -7 65 -34c2 -12 -3 -21 -9 -31c-30 -49 -58 -103 -77 -157c46 39 92 78 141 115c17 14 35 26 52 40c10 9 41 40 44 8zM153 -280c30 68 54 138 78 207 c-42 -39 -79 -80 -114 -125c-34 -43 -74 -90 -89 -144c-6 -22 -3 -88 37 -74c21 7 36 36 47 54c13 22 25 45 35 68c0 0 1 2 1 3c0 0 0 1 1 1v1l4 8v1zM211 -266c-5 -10 -9 -22 -13 -33l9 16c11 18 16 36 22 54c-7 -12 -14 -25 -18 -37zM245 -157c2 5 1 12 0 17 c2 -11 -6 -27 -10 -36c-4 -6 -6 -16 -8 -25zM213 -242c2 2 3 4 4 6z"></glyph><glyph glyph-name="z" unicode="z" d="M328 156c0 -1 1 -2 1 -3l87 65c8 6 53 52 64 31c4 -12 -9 -26 -17 -34c-24 -25 -52 -46 -79 -68c-12 -10 -28 -20 -38 -31c-8 -9 -7 -10 -7 -22c0 -9 0 -18 -1 -26c-3 -29 -12 -56 -24 -82c-49 -106 -134 -211 -244 -256c47 27 99 60 134 103c23 28 44 58 57 92 c10 26 24 54 33 81c-10 -29 -29 -60 -44 -86c-18 -31 -41 -59 -63 -88c-29 -40 -71 -70 -112 -96c-43 -28 -102 -32 -152 -26c-16 2 -33 6 -48 12c-16 7 -31 16 -40 31c-7 11 -6 31 -7 35c0 6 0 11 1 16c-2 -5 -4 -11 -5 -11c-13 13 19 62 27 74c26 34 67 57 103 78 c92 55 191 95 282 149c18 11 28 14 26 35c-2 15 -8 36 -19 47c-22 21 -60 6 -83 -5c-19 -10 -42 -31 -62 -36c-16 -3 -29 8 -33 23c-3 10 2 19 8 26v1c-5 2 30 22 31 22c15 7 25 13 38 24c14 12 29 20 45 30c1 0 16 12 20 16c3 4 3 6 10 14c9 9 21 16 30 25 c16 16 29 36 45 53l-12 -5h3c2 -4 -88 -27 -95 -28c-14 -3 -35 -9 -49 -3c-8 3 -10 8 -16 12s-13 2 -19 11c-6 11 -3 24 3 34c5 8 17 22 27 24c6 1 9 -1 13 -1v1c-1 4 29 8 29 5c0 -1 -3 -3 -7 -4c21 3 41 6 62 7c-12 0 -25 0 -25 1c0 2 117 6 128 6c19 -1 58 0 53 -29 c-2 -12 -15 -25 -23 -33c-25 -26 -60 -45 -84 -66c3 2 5 3 8 3c0 0 -74 -70 -81 -76c57 3 100 -22 119 -77c1 1 2 3 2 5zM229 21c3 6 4 11 6 16c-33 -21 -68 -39 -101 -59c-1 -1 -16 -16 -22 -15l16 11l-22 -12c1 0 2 -1 2 -2c-7 -11 -31 -21 -42 -27l-45 -26 c-28 -16 -57 -32 -81 -54c-25 -22 -71 -65 -41 -99c5 -6 11 -9 18 -11c8 -2 51 5 52 5c0 0 -4 -2 -7 -4c13 5 26 11 39 18h-1c10 5 25 17 32 21c12 8 24 17 35 27c26 22 51 47 74 72c39 43 67 86 88 139zM279 219c19 -11 33 -28 42 -48c-11 18 -35 41 -40 45 c1 -1 -45 18 -45 15c0 5 45 -13 43 -12zM335 71c1 12 2 25 1 37c-5 -4 -4 -50 -6 -63c2 8 4 17 5 26zM327 426c-2 0 -4 -1 -5 -1h12c-2 0 -5 1 -6 1h-1zM328 156c-2 5 -4 10 -7 15c4 -6 7 -11 7 -15zM117 208l-1 -1c1 0 1 0 2 1h-1zM264 -95c1 1 2 1 2 2c0 -1 -1 -1 -2 -2z "></glyph><glyph glyph-name="space" unicode=" "></glyph><glyph glyph-name="A" unicode="A" d="M553 551c10 -16 0 -22 -7 -31c1 1 2 2 4 2c2 -1 -20 -36 -24 -34c-1 0 2 4 4 8c-30 -44 -51 -92 -69 -142c12 32 36 90 44 95c-7 -8 -44 -105 -47 -115c-14 -40 -25 -81 -31 -122c-7 -42 -11 -84 -16 -125c-4 -33 -12 -71 -9 -101c0 4 0 8 2 12c1 0 8 -44 14 -48 c3 -2 6 1 9 1c18 3 38 31 48 43c7 8 19 32 29 36c36 16 -7 -94 -17 -106c-16 -21 -31 -38 -60 -38c-24 0 -47 9 -65 24c-32 29 -46 74 -48 115c0 18 3 33 6 50c0 4 -2 34 1 35c0 -1 1 -2 1 -3c0 2 -1 4 0 5c-2 0 -3 18 -3 19c1 13 4 25 6 38c4 19 6 37 8 56c0 7 18 92 28 91 c2 0 -1 -7 0 -8l8 28c-53 -86 -108 -174 -167 -257c-19 -25 -53 -80 -89 -82c-33 -2 -63 33 -79 58c0 0 -12 12 -13 17c1 -3 10 -12 10 -12l-12 21c3 -10 -5 7 -6 7c-4 7 -6 15 -7 22c-5 17 -6 35 -6 52c1 36 11 70 18 105c6 36 18 70 32 103c3 6 30 74 37 73 c0 0 -5 -13 -4 -14c6 16 14 32 22 48l-7 -9c1 16 19 37 26 51l30 59c23 40 51 77 80 113c25 31 56 64 95 78c20 7 42 3 62 -1c37 -8 75 -34 103 -58c11 -10 33 -26 32 -43c0 -14 -17 -28 -28 -35c-25 -16 -33 -7 -39 16c0 -1 3 -11 1 -12s-11 31 -12 35c-2 6 -4 13 -7 19 c3 -5 6 -8 8 -10c-4 12 -10 20 -16 24c-10 4 -22 2 -38 -4c-22 -8 -42 -22 -59 -38c-48 -43 -84 -100 -114 -157c19 35 41 68 65 100c12 16 25 31 40 45c7 7 23 16 31 24c-11 -13 -30 -25 -41 -36c-13 -14 -24 -29 -35 -44c-24 -33 -45 -68 -64 -104 c-40 -76 -72 -157 -93 -240c-10 -38 -19 -77 -24 -116c-1 -9 -8 -43 2 -49c15 -9 58 42 65 50c23 24 46 48 66 72c-4 -4 -8 -9 -10 -8c-1 0 38 57 42 62l48 68l100 149c8 12 14 25 21 38c5 11 13 17 19 24c7 7 8 20 15 28c25 31 66 10 84 -17zM106 222 c-4 -32 -9 -66 -11 -99v-4l2 18c2 33 9 66 17 99c16 65 36 132 60 195c23 59 49 116 82 170c16 28 38 59 65 82c-31 -25 -55 -61 -72 -91c-31 -53 -60 -106 -84 -163c-28 -65 -49 -137 -59 -207zM330 69c-1 -20 0 -39 2 -58c-1 11 0 22 1 33c2 19 6 37 8 56c1 16 0 33 2 48 c-3 -7 -5 -14 -7 -20c-5 -20 -6 -38 -6 -59zM181 420v2l-2 -5zM338 696c-4 -2 -8 -6 -12 -9zM434 702c0 -2 2 -5 4 -8zM441 691c0 0 -2 1 -3 3zM458 346l3 8z"></glyph><glyph glyph-name="B" unicode="B" d="M430 352c67 6 135 -25 150 -96c7 -35 0 -75 -11 -109c-38 -118 -147 -201 -257 -250c-46 -21 -98 -39 -148 -49c-31 -6 -61 -8 -91 -2c-16 2 -59 6 -69 20c-10 12 1 11 13 13c29 5 57 9 84 18c64 19 125 48 181 82c53 32 103 69 144 115c19 22 37 46 49 72 c6 13 18 53 12 59c-2 1 -6 20 -6 31c1 -7 5 -14 6 -19c-1 11 -3 22 -8 33v-3c-3 5 -15 19 -16 19c-9 9 -20 13 -32 15c-25 3 -41 -10 -63 -16c-26 -7 -99 40 -70 63c13 10 34 15 49 24c25 18 49 37 71 59c24 23 45 49 65 76c5 7 37 62 42 61c0 0 -8 -18 -8 -19 c11 21 22 42 30 64v1l1 1l1 3c13 30 26 91 -1 98c-18 5 -39 -21 -50 -32c-57 -56 -106 -123 -149 -190c-25 -38 -48 -76 -71 -115c-14 -23 -33 -42 -43 -66c-31 -73 -64 -143 -88 -219c-12 -39 -20 -78 -27 -118l-3 6c-28 -30 -69 -9 -82 23c-15 33 -7 81 -6 116 c2 42 4 85 14 126c4 17 10 32 16 48c1 4 4 35 7 36c0 -1 0 -2 1 -3c0 2 1 4 1 7c-4 -10 -1 16 0 17c2 11 6 22 9 32c6 20 11 38 14 58c2 7 27 96 37 94c2 -1 -2 -7 -1 -8l7 22c-3 1 45 107 49 116c18 33 31 66 60 90c18 14 40 57 73 45c15 -6 30 -28 31 -44 c0 -12 -6 -14 -12 -21c1 1 3 2 5 2c2 -1 -24 -35 -27 -34c-1 0 3 7 6 12c-36 -49 -64 -103 -88 -159c10 21 51 106 58 109c-5 -3 -52 -105 -57 -114c-17 -40 -32 -80 -44 -122c-11 -40 -19 -80 -30 -120c-9 -32 -22 -68 -27 -100c1 2 2 4 4 6c1 1 -4 -47 -4 -50l-4 -38 c43 146 115 284 200 409c-32 -46 -62 -94 -90 -143c-13 -25 -26 -50 -38 -75c-9 -18 -28 -47 -31 -65c2 17 16 37 23 52c8 19 17 37 27 55c17 33 35 66 54 98c42 67 88 133 138 194c24 30 50 59 77 86c21 20 50 52 80 57c56 9 91 -49 96 -97c18 -144 -107 -292 -233 -347z M474 102c7 16 18 43 20 60l-5 -12c-17 -35 -36 -62 -61 -91l-34 -36c12 9 27 15 41 27c15 13 32 33 39 52zM598 528c-11 -20 -24 -38 -38 -56c9 10 17 20 26 29c25 28 37 55 47 88c-10 -22 -25 -44 -35 -61zM72 218c5 11 11 22 13 35c1 6 1 12 1 17c-5 -10 -12 -21 -15 -30 c-6 -21 -9 -51 -7 -73c-1 15 2 37 8 51zM213 513l2 6c-1 -2 -2 -4 -2 -6zM405 642l-7 -7zM229 553l2 4c-1 -1 -2 -3 -2 -4z"></glyph><glyph glyph-name="C" unicode="C" d="M94 80c0 -1 -1 -1 -1 -2v-1c-5 -31 -6 -59 -5 -89l3 -6c1 -3 2 -8 2 -13c6 -3 11 -20 16 -25c9 -9 20 -12 32 -13c9 0 18 1 26 3c61 14 111 61 151 105c39 42 74 88 104 137c4 6 12 30 23 29c12 -1 7 -36 6 -43c-13 -102 -82 -192 -158 -256c-26 -21 -60 -50 -95 -52 c-30 -2 -62 15 -86 30c-46 27 -88 69 -105 120c-13 37 -5 77 0 115c1 2 -2 21 2 26c-1 -2 -1 -19 -1 -19c1 7 1 16 3 23c-2 -2 0 14 0 15c1 9 3 17 5 26c4 19 10 37 16 56c12 38 28 75 40 114c11 35 27 68 45 101c5 9 46 91 55 89c0 0 -7 -14 -6 -15c10 17 20 35 31 52 c-4 -4 -9 -10 -9 -10c4 13 20 30 28 41c7 12 15 23 23 35c18 26 38 52 59 76c29 30 71 74 116 76c81 5 128 -81 129 -149v-1c0 -36 -9 -77 -33 -104c-22 -25 -66 -54 -100 -58c-8 -1 -22 -4 -20 8c0 1 3 4 7 7h-1c6 2 38 76 45 75l-15 -34c17 32 33 64 46 98 c7 20 21 55 12 76c-12 26 -48 6 -64 -3l-14 -8l5 2c-5 -3 -9 -6 -12 -9c5 4 11 8 17 10c13 9 44 28 60 16c12 -10 9 -25 4 -39c4 18 4 37 -14 40s-32 -12 -46 -16c-46 -30 -82 -79 -112 -124c-34 -49 -64 -102 -90 -156c-28 -57 -49 -116 -71 -176 c-21 -57 -42 -115 -53 -174v-5c0 -1 0 -1 -1 -2zM270 569c16 27 36 59 59 87c-57 -62 -105 -137 -141 -214c-30 -64 -55 -128 -76 -195c15 43 34 84 53 124c33 68 66 134 105 198zM373 679c7 7 16 17 25 25c-25 -20 -45 -45 -64 -70c12 15 25 31 39 45zM475 671 c0 -1 0 -2 -1 -4c0 7 4 16 6 25c-1 -8 -3 -15 -5 -21z"></glyph><glyph glyph-name="D" unicode="D" d="M664 705c3 -24 4 -49 3 -73c-1 -25 -9 -50 -8 -74c0 -2 4 -11 4 -17c-1 -10 -3 -22 -5 -32c-5 -26 -12 -51 -20 -76c-15 -52 -34 -101 -56 -151c-8 -18 -22 -36 -27 -55c-3 -11 -4 -23 -9 -35c-22 -48 -50 -96 -81 -139c-39 -55 -105 -136 -182 -123 c-76 13 -118 87 -118 158c18 -39 54 -119 108 -106c47 12 78 76 100 113c26 46 51 94 73 143c34 76 60 158 88 238c17 49 31 99 42 149c3 14 22 83 2 90c-16 6 -51 -37 -59 -46c-36 -39 -69 -81 -102 -123c-53 -67 -95 -142 -140 -214c-54 -89 -102 -182 -141 -278 c-19 -47 -32 -88 -38 -138c-2 -9 0 -26 -8 -35c-19 -25 -67 -6 -81 14c-20 29 -2 86 3 118c7 50 13 100 27 149c5 18 13 34 20 51c1 3 6 36 9 37c0 -1 0 -3 1 -4v5c-2 -1 2 20 2 21c3 14 8 27 13 40c7 20 12 39 16 60c1 7 30 98 39 96c2 -1 -2 -8 -1 -9c4 9 6 19 10 28 l-3 -4c-3 1 51 128 56 138c9 23 18 46 31 67c8 14 19 21 25 33c11 21 29 47 56 43c18 -3 37 -23 44 -40c5 -14 1 -19 -5 -28l4 3c3 -1 -18 -42 -22 -41c-1 0 3 10 6 16c-29 -56 -57 -114 -83 -172c14 29 44 93 54 109c-15 -26 -81 -182 -82 -186c-34 -86 -59 -177 -89 -265 c63 140 146 273 237 396c43 58 88 115 137 166c20 21 59 70 91 70c42 0 55 -54 59 -87zM122 349c0 0 -1 -15 1 -13c6 7 9 28 12 38c6 16 11 32 18 48c12 29 25 57 39 86c11 22 20 44 30 66c4 10 10 19 14 28c3 6 4 16 6 21c-22 -37 -40 -76 -59 -114 c-15 -29 -26 -57 -37 -87c-9 -23 -21 -49 -24 -73zM437 162v1c4 6 38 80 38 81c-1 0 -5 -8 -10 -18v-1c-3 -5 -5 -11 -7 -16l1 5l-6 -14c-3 -8 -6 -16 -10 -24l8 19c-13 -28 -28 -56 -44 -84c-19 -34 -40 -69 -64 -100c-10 -12 -22 -27 -36 -34c-1 -1 -22 -5 -21 -8 c9 -21 72 59 75 63c22 32 43 68 62 103c0 1 0 2 1 2l5 10c2 5 5 10 8 15zM510 269v1c-15 -36 -36 -69 -48 -105c5 16 19 31 27 46c9 18 16 38 21 58zM137 327l3 3c-8 -3 -10 -23 -14 -29c-5 -8 -10 -12 -11 -22c-1 -5 -3 -13 -3 -19c2 8 13 20 16 26c4 13 1 28 9 41zM362 29 c15 20 28 42 41 67c-13 -24 -27 -46 -41 -67zM256 648c-4 -4 -4 -7 -2 -9c5 5 6 7 2 9zM232 443c4 8 7 16 10 25l-26 -64l16 38v1zM412 114l-2 -5c1 2 2 3 2 5zM454 202c0 -1 -1 -1 -1 -2c1 1 1 1 1 2z"></glyph><glyph glyph-name="E" unicode="E" d="M696 730c2 -19 -38 -25 -49 -28c-9 -2 -18 -1 -26 -4c-3 2 -6 2 -10 0c1 -2 0 -4 -1 -5c-17 -8 -37 -13 -56 -16c-20 -4 -40 -10 -60 -13c-8 -1 -17 -1 -25 -4c-10 -3 -8 -5 -15 -7c-18 -7 -37 -7 -55 -9c-10 -2 -21 -5 -31 -8l-18 -3c0 -3 -2 -6 -4 -8c0 3 0 5 2 8 c-6 -1 -17 -41 -19 -47l-21 -53c-10 -26 -20 -51 -29 -77c12 33 28 74 37 95c-21 -51 -76 -206 -82 -223c44 5 88 8 131 13c23 3 45 6 68 7h13c3 1 6 6 8 5c12 -4 9 -13 1 -20c-13 -11 -34 -7 -49 -11c-8 -2 -4 -4 -13 -8c-9 -6 -25 -7 -35 -9c-19 -2 -37 -6 -56 -9 c-14 -2 -21 -10 -38 -12c-13 -2 -38 0 -49 -8c-6 -5 -11 -32 -14 -40l-12 -37c-15 -49 -32 -96 -49 -144c-10 -26 -19 -52 -28 -78c-6 -18 -15 -34 -16 -52c0 -3 4 19 7 16s-1 -15 0 -19c44 8 90 38 129 59c38 20 75 43 113 63c18 9 28 5 20 -16c-7 -19 -26 -38 -41 -52 c-22 -20 -43 -40 -67 -59c-48 -36 -118 -89 -181 -63c-39 16 -80 53 -76 99c2 19 13 32 22 48c2 5 11 45 16 46c0 0 -3 -10 -4 -13l5 15c-1 1 3 16 3 18l11 28c7 18 15 35 21 53c14 35 21 71 36 106c-27 0 -70 37 -33 54c1 0 2 0 2 1c13 4 30 3 43 4c6 1 12 4 17 5 c1 0 2 8 4 7c0 0 -2 -8 -3 -9c5 1 12 28 15 38c-1 -3 -3 -6 -5 -9c1 0 81 242 88 264c-32 -5 -92 1 -86 47c1 11 6 17 18 21c27 10 84 -4 100 20c13 18 2 42 26 50c17 6 40 -4 54 -14c8 -6 12 -13 19 -20c2 -3 3 -6 3 -10l19 3c46 5 92 8 138 14c43 5 87 12 131 13 c5 0 12 0 16 1c3 0 7 4 8 4c5 0 11 0 12 -8zM185 374c16 37 25 81 37 118c-10 -26 -22 -51 -30 -77l-47 -129c13 30 27 57 40 88zM234 336l9 24l-13 -32c3 0 5 3 4 8zM322 564c0 -1 -1 -2 -1 -3c0 0 1 2 1 3zM322 564c1 1 1 2 2 2c-1 0 -1 -1 -2 -2zM319 558l-3 -7z"></glyph><glyph glyph-name="F" unicode="F" d="M678 733c17 -10 -55 -46 -62 -48c-13 -4 -11 -6 -21 -14c-11 -9 -34 -14 -47 -17c-53 -14 -102 -28 -155 -32c-12 -1 -29 -2 -41 -5c-13 -4 -10 -2 -15 -17l-8 -22c-9 -29 -17 -59 -26 -89c-9 -29 -19 -60 -33 -86c-4 -6 -16 -45 -18 -45v3l-3 -8c5 9 1 -12 1 -13 c34 3 67 6 101 8c32 3 64 -2 96 0c2 0 17 12 13 -7c-4 -18 -40 -16 -53 -19c-12 -3 -18 -10 -35 -13c-16 -4 -31 -6 -47 -10c-12 -3 -27 -1 -39 -6c-8 -4 -17 -9 -30 -10c-14 -1 -24 0 -31 -13c-7 -14 -6 -35 -11 -50c-2 -5 -25 -74 -31 -73c-2 0 2 7 1 8 c-4 -9 -7 -19 -10 -27l4 4c1 -1 -37 -119 -40 -129c-12 -36 -17 -80 -41 -107c-6 -7 5 -6 -10 -11c-16 -5 -44 11 -57 20c-15 10 -27 25 -30 43c-2 17 6 21 11 33l-4 -4c-3 0 12 42 16 42c0 -1 -1 -3 -1 -5l32 81c-8 -20 -15 -34 -15 -33c1 0 69 176 75 192 c-23 -1 -73 21 -47 49c6 6 15 7 22 8l30 5c20 5 20 7 26 26c8 24 16 47 26 71c17 40 41 81 55 119l-6 -8c-2 0 10 36 11 40c6 15 10 29 15 43c-31 -2 -113 0 -96 53c7 20 27 19 45 20c14 1 27 1 41 3c8 0 20 0 28 3c11 3 11 1 15 14c4 12 6 27 13 38c23 38 75 -12 74 -43 c59 10 122 9 182 17c30 4 61 8 92 14c6 1 34 3 38 7zM203 263c-1 -2 -1 -3 0 1v1c-28 -75 -60 -149 -85 -224c12 33 30 65 43 98c15 41 29 83 42 124zM118 255c-3 -1 -9 -19 -13 -31zM204 268c-1 -1 -1 -2 -1 -3c0 1 0 1 1 2v1zM204 268c0 1 1 2 1 2v1c-1 -1 -1 -2 -1 -3z "></glyph><glyph glyph-name="G" unicode="G" d="M576 438c1 -11 -3 -20 -8 -30c-12 -24 -25 -48 -38 -72c-7 -14 -5 -24 -11 -40c-9 -27 -22 -54 -32 -82l-60 -147c-18 -46 -42 -90 -55 -136c-13 -48 -40 -93 -63 -136c-24 -46 -45 -92 -77 -133c-17 -23 -40 -53 -67 -65s-62 -3 -88 8c-86 36 -94 123 -53 197 c25 44 60 83 99 115c15 11 28 25 42 37c10 9 28 31 43 32c31 2 -17 -44 -22 -50c-32 -40 -60 -84 -82 -131c-15 -30 -56 -106 -27 -138c27 -31 65 14 81 35c62 85 101 188 140 285c39 100 73 202 109 304c-35 -58 -75 -115 -119 -166c-28 -31 -64 -71 -108 -76 c-75 -9 -137 86 -135 152c0 1 -4 21 0 25v-18l3 23c-3 -5 -1 25 0 31c5 20 11 40 19 60c12 32 27 64 39 96s29 61 48 90c4 6 45 72 52 69c0 0 -7 -12 -6 -12c9 12 19 28 31 43l-8 -8c4 16 26 33 36 45c15 17 29 34 45 50c30 29 66 59 109 64c48 7 92 -21 118 -61 c9 -14 9 -24 11 -38c1 -13 8 -23 8 -37c1 -36 -29 -70 -54 -94c-24 -23 -61 -56 -94 -65c-19 -5 -17 1 -11 9c-3 -2 -6 -5 -6 -3c1 5 40 65 44 64c0 0 -15 -28 -16 -30c22 34 40 70 51 108c5 18 13 47 5 65c-17 35 -81 -36 -108 -66c13 14 26 28 41 42c12 10 34 32 50 32 c35 0 9 -77 8 -77c-5 1 29 82 -10 74c-33 -7 -66 -50 -87 -74c-60 -68 -112 -147 -154 -227c-21 -41 -40 -84 -58 -126c-11 -26 -43 -90 -20 -116c27 -31 93 28 109 42c-3 -2 -15 -14 -19 -12c0 0 47 47 50 51l53 58c38 43 73 88 108 133c14 18 30 36 41 55c4 6 5 15 6 17 c21 43 94 -10 97 -45zM137 434c-32 -55 -57 -114 -69 -175c10 44 32 88 50 128c21 47 51 93 79 136c12 17 24 35 37 52c6 8 14 26 23 34c-23 -19 -42 -53 -58 -77c-22 -31 -42 -65 -62 -98zM522 351l10 25c-40 -85 -77 -173 -107 -262c12 36 32 71 47 107 c18 42 34 86 50 130zM393 40c5 7 8 16 12 23c-4 -4 -8 -8 -10 -12l-10 -23c2 4 5 8 8 12zM384 25c0 1 0 2 1 3zM313 551c0 -1 -1 -2 -2 -2c1 0 2 1 2 2z"></glyph><glyph glyph-name="H" unicode="H" d="M627 679c13 -28 -4 -40 -13 -60c-4 -11 -5 -23 -11 -36l-24 -46l-48 -95c-14 -28 -30 -54 -37 -83c20 0 44 -4 64 -2c4 1 8 -1 12 0c0 0 2 6 5 5c6 -2 12 -3 10 -12c-3 -10 -22 -13 -28 -14c-16 -4 -33 -2 -48 -6c-8 -2 -14 -4 -25 -9c-17 -9 -29 -44 -37 -62l-33 -80 c-14 -30 -20 -58 -31 -89c-24 -63 -50 -126 -72 -190c-12 -34 -24 -74 -68 -47c-19 12 -28 31 -24 52c7 35 21 71 32 105c14 42 30 82 47 122c24 56 41 116 66 172c-18 -3 -33 -11 -53 -12c-21 -2 -42 -5 -63 -8c-20 -2 -58 -5 -70 -19c-9 -11 -14 -36 -19 -50l-7 -28 c-6 -31 -19 -61 -28 -91c-11 -34 -22 -68 -31 -102c-6 -20 -7 -66 -31 -71c-25 -5 -58 31 -61 53c-4 21 6 44 11 63c21 77 49 151 72 227c-14 4 -44 18 -35 38c4 9 20 12 28 14c18 5 24 0 32 16c6 12 11 25 16 37c10 27 21 53 31 79c35 86 68 172 111 254c4 6 8 13 11 20 c0 -2 4 12 2 11c10 14 30 11 45 5c20 -7 43 -24 35 -47c-5 -12 -17 -23 -24 -35c-6 -13 -8 -31 -16 -47c-9 -20 -18 -41 -28 -61c-18 -34 -31 -70 -47 -105c-10 -21 -10 -41 -19 -62c-6 -16 -12 -32 -20 -47c27 0 51 9 78 12l46 3c14 1 37 -2 50 3c18 8 34 67 43 88l41 96 l73 164c7 16 4 29 29 25c25 -3 50 -25 61 -48zM191 365l69 157c-20 -43 -48 -84 -65 -129s-31 -88 -46 -133c13 35 27 70 42 105zM310 -38c9 16 13 32 18 49c-6 -11 -17 -21 -20 -33c-4 -11 -4 -22 -6 -33c2 6 5 11 8 17zM264 531c-1 -2 -2 -3 -2 -5z"></glyph><glyph glyph-name="I" unicode="I" d="M644 696c3 -19 -38 -22 -49 -23c-16 -1 -20 -9 -39 -13c-18 -4 -36 -8 -54 -11c-4 -1 -17 0 -20 -2c-7 -6 0 -8 -1 -14c-6 -22 -21 -45 -31 -65c-19 -36 -36 -72 -54 -109c-17 -33 -26 -68 -43 -102c-19 -38 -35 -77 -51 -116c-13 -30 -19 -61 -31 -92 c-19 -46 -35 -94 -49 -142c47 5 95 9 142 6c5 0 14 -2 19 -1c4 0 3 6 7 5c5 -1 8 -4 8 -10c0 -16 -35 -20 -46 -20c-8 -1 -13 -1 -18 -3c-5 -3 -11 -8 -19 -10l-52 -11c-28 -6 -50 -13 -79 -17c-16 -2 -32 -6 -48 -8c-10 -2 -17 -7 -26 -10c-25 -8 -69 -17 -93 -3 c-18 11 -25 36 -4 47c11 6 28 5 40 8c33 6 66 8 97 18c-20 44 5 92 20 134c9 26 20 51 32 76c11 25 17 51 26 76c21 58 49 114 74 170c26 57 50 114 77 170c-10 -2 -16 -6 -26 -10c-14 -6 -39 -8 -55 -9c-22 -1 -63 12 -51 42c3 7 6 9 13 12c12 6 30 6 43 8c19 4 37 9 56 10 c14 1 24 4 38 8s13 4 21 14c4 4 8 11 10 16c0 0 -3 3 0 7c5 6 10 7 18 8c17 2 37 -8 49 -19c8 -7 8 -11 19 -13c5 -1 15 1 21 1c25 2 50 3 75 1c4 0 15 -2 19 -1c4 0 2 6 6 5c5 -1 8 -2 9 -7v-1zM390 508c9 16 14 32 20 49c-7 -11 -20 -22 -24 -33c-5 -13 -4 -26 -7 -39 c3 8 7 15 11 23zM349 452c5 9 6 19 10 28c-4 -5 -8 -10 -10 -14c-6 -12 -9 -24 -14 -36z"></glyph><glyph glyph-name="J" unicode="J" d="M622 697c1 -10 -5 -18 -10 -25l-54 -66c-12 -16 -13 -32 -23 -50l-42 -85c-24 -52 -45 -104 -66 -156c-11 -27 -26 -54 -33 -82c-7 -25 -13 -50 -24 -76c-38 -93 -73 -189 -135 -269c-14 -19 -29 -34 -55 -34c-25 0 -52 8 -74 20c-49 27 -75 80 -88 132 c-14 55 -18 112 -15 168c1 13 -10 91 4 96c16 5 20 -26 22 -36c7 -57 13 -112 28 -167c8 -28 17 -57 28 -84c7 -19 17 -47 37 -57c39 -21 70 55 82 80c53 106 92 219 133 330c39 106 77 218 138 315c-28 -11 -55 -15 -83 -23c-25 -7 -49 -20 -74 -27 c-32 -9 -103 -22 -114 -59c-5 -19 11 -41 22 -55c6 -8 37 -31 28 -42c-1 -2 -18 -8 -19 -8c-18 -1 -40 16 -53 28l-21 19c-9 7 -17 11 -23 23c-5 9 -9 17 -9 27c2 35 33 44 58 57c37 19 83 28 126 40c13 4 20 10 32 15c20 9 43 13 63 19c28 9 56 17 84 25c12 4 8 0 18 9 c6 5 10 14 13 17c20 23 94 20 99 -19zM415 362c16 34 24 79 39 114c-12 -24 -24 -47 -33 -72l-63 -165c17 44 38 80 57 123z"></glyph><glyph glyph-name="K" unicode="K" d="M637 -34c9 11 18 26 22 -1c1 -12 -2 -20 -8 -30c-28 -44 -68 -97 -124 -107c-22 -4 -42 1 -60 11c-4 3 -57 42 -57 46c1 0 2 0 4 -1c-2 2 -4 3 -5 3c3 -3 -10 5 -12 6c-8 6 -14 13 -19 20c-11 13 -22 24 -34 35c-5 4 -52 59 -45 66c1 1 4 -5 6 -3l-13 16v-2 c-2 -3 -61 91 -67 100c-10 16 -24 34 -29 53c-1 3 0 6 3 7c-1 4 -4 7 -8 9l-18 35c-9 -29 -10 -58 -20 -87c-13 -43 -23 -85 -33 -127l-12 -52c-3 -13 -2 -34 -9 -46c-14 -26 -46 12 -56 27c-30 40 -11 87 0 130c9 38 20 75 33 112c11 29 15 58 22 88c22 76 50 151 74 227 c23 67 45 135 73 202c4 13 10 27 17 41l7 17c-1 1 -2 3 -2 4c13 23 51 12 68 -1c35 -24 5 -46 -7 -74c-4 -10 -2 -17 -5 -29c-6 -21 -17 -42 -24 -62c-11 -28 -21 -56 -31 -85l-18 -45c-7 -16 -10 -30 -12 -47c-6 -31 -24 -60 -32 -91c49 38 94 76 137 120 c43 47 90 87 131 137c38 48 88 104 105 163c3 10 0 22 15 19c21 -5 38 -45 42 -64v-2c7 -43 -15 -75 -43 -108c-20 -23 -38 -46 -60 -69c-11 -11 -15 -22 -24 -34s-23 -23 -34 -33c-23 -20 -44 -43 -67 -63c-16 -13 -27 -29 -42 -43c-43 -39 -95 -75 -148 -101 c22 -36 44 -71 71 -104c-8 12 -24 34 -34 51c32 -42 104 -128 112 -138c26 -24 52 -47 77 -72c17 -17 38 -40 56 -52l-5 6c0 2 37 -15 41 -17c10 -3 20 -6 30 -5c26 3 56 25 71 44zM135 296l5 22c-23 -81 -49 -163 -68 -244c9 31 22 62 32 94c12 42 20 84 30 125 c0 1 0 2 1 3zM322 109l-7 7c7 -10 16 -19 24 -28zM244 213c-3 5 -5 8 -5 9zM249 206l-4 5z"></glyph><glyph glyph-name="M" unicode="M" d="M743 -169c10 3 49 27 52 11c4 -16 -27 -43 -37 -52c-17 -14 -37 -24 -58 -29c-44 -12 -77 4 -105 40c-58 75 -48 164 -24 248c0 0 1 20 5 23c0 -1 -1 -10 -2 -14l5 18c0 -1 -1 -1 -2 -1c-3 12 9 36 13 47l22 50c13 29 24 57 35 87c11 33 29 64 44 95c3 5 24 53 28 52 c0 0 -4 -12 -3 -13c7 17 13 34 19 52l-7 -14c-1 13 22 46 1 51c-17 4 -42 -22 -53 -32c-45 -41 -80 -89 -115 -139c-17 -24 -32 -48 -53 -69c-13 -12 -21 -34 -32 -50l-51 -86c-12 -21 -29 -41 -37 -64c-10 -28 -21 -53 -52 -24c-30 29 -30 67 -22 105 c22 113 82 223 140 321c25 42 47 89 64 135c3 8 11 23 3 26c-10 4 -34 -15 -41 -20c-46 -34 -81 -80 -116 -125c-35 -46 -67 -94 -99 -143c-34 -51 -66 -103 -98 -155c-15 -25 -32 -49 -42 -76c-11 -25 -20 -51 -30 -77c-6 -16 -11 -41 -21 -55c-13 -18 -39 -17 -56 -3 c-15 12 -19 31 -18 50c3 55 27 114 48 164s43 98 62 149c38 104 94 204 123 312v-10l6 37c4 24 3 48 -27 41c-22 -6 -40 -22 -55 -39c-36 -38 -63 -87 -81 -136c-4 -10 -7 -26 -8 -32c-1 -8 2 -15 -5 -22c-12 -10 -25 -2 -33 9c-16 24 -14 62 -7 89c7 24 24 41 34 63 c3 7 2 15 8 23l10 14c11 12 22 23 34 34c23 19 48 33 77 42c32 10 67 12 92 -15c16 -17 25 -48 30 -70c7 -31 -3 -70 -12 -99s-18 -59 -28 -88c-9 -28 -20 -55 -30 -83c-8 -22 -12 -43 -19 -65c52 81 108 165 175 236c33 35 112 151 167 84c25 -31 34 -78 19 -115 c-14 -34 -39 -64 -54 -97c-39 -89 -85 -176 -113 -270c36 62 73 124 115 183c-10 -14 -22 -28 -31 -43c18 28 34 52 38 57c35 48 72 95 117 135c24 22 56 48 91 48c41 1 67 -36 74 -73c16 -87 -43 -168 -78 -241c2 4 5 7 7 7c1 0 -25 -65 -28 -71c-12 -28 -23 -56 -35 -83 c-21 -52 -42 -105 -54 -159c-6 -26 -17 -70 12 -86c28 -15 74 -10 102 0zM610 131c-16 -33 -24 -66 -34 -99c10 30 23 60 36 89c16 34 36 74 43 110c3 6 3 9 0 10c-10 -12 -14 -39 -20 -54c-8 -19 -16 -38 -25 -56zM167 430c-18 -41 -34 -82 -50 -124c18 45 37 89 58 132 c22 45 37 92 49 139c-5 -16 -12 -32 -18 -46c-14 -33 -25 -68 -39 -101zM487 282c-14 -24 -51 -86 -54 -85zM639 473c-13 -12 -25 -25 -37 -39zM568 0c2 4 2 6 0 7c-3 -4 -3 -6 0 -7zM592 422l3 3l1 2l1 1c0 -1 -1 -1 -1 -1l1 1l2 2l1 1l2 3l-2 -2c-1 -1 -4 -4 -6 -8v1z M489 285l4 5v1zM487 282c1 1 2 2 2 3zM599 431c1 0 1 1 1 1z"></glyph><glyph glyph-name="L" unicode="L" d="M475 132c35 -4 -5 -32 -20 -39c-59 -30 -127 -32 -189 -54c-29 -10 -57 -24 -84 -39c-16 -8 -29 -14 -40 -29c-2 -3 -22 -25 -21 -22c-6 -6 -14 -13 -21 -18c5 2 20 12 21 10c2 -13 -29 -23 -39 -25c-22 -3 -49 3 -56 27c-10 33 17 70 38 91c10 10 21 18 34 23 c15 7 34 7 40 23c0 -1 1 23 6 26c1 0 -4 -21 -4 -21c3 8 4 16 7 25c-1 -1 -2 -1 -3 0c-5 13 11 49 14 62c5 19 11 37 15 56c9 34 14 66 18 101c4 38 15 75 25 111c2 5 19 69 24 69c1 0 -3 -14 -2 -15c6 20 11 40 17 59c-1 -1 -8 -16 -8 -14c-2 11 9 29 13 40l14 42 c10 28 21 56 38 82c22 32 53 58 93 60c28 2 57 -8 80 -21c42 -23 58 -54 61 -97c3 -53 -33 -128 -75 -160c-16 -12 -38 -22 -58 -20c-13 1 -29 8 -21 23c0 0 2 1 3 3h-1c0 1 35 74 39 73c1 0 -12 -32 -12 -34c15 31 28 64 38 97c5 17 20 58 8 76c-13 19 -42 -3 -54 -14 c-28 -28 -45 -68 -60 -104c17 39 43 103 87 119c41 15 24 -42 20 -56c3 11 11 52 -5 57c-19 5 -41 -22 -50 -34c-41 -53 -64 -123 -85 -186c-43 -130 -68 -265 -118 -392c66 20 135 37 204 41c23 1 47 0 69 -2zM264 567c-11 -35 -22 -69 -31 -104c8 26 17 50 27 74 c31 68 59 178 139 198c-32 -7 -56 -25 -77 -54c-26 -35 -44 -73 -58 -114zM317 489v1c-8 -24 -16 -47 -23 -71l23 69v2v-1zM99 -70l1 1c-1 0 -1 -1 -1 -1z"></glyph><glyph glyph-name="N" unicode="N" d="M186 238c28 43 56 87 86 130l-26 -36l-36 -49c66 100 136 198 216 287c46 50 163 173 208 52v-2c1 -3 1 -4 2 -5c30 -97 -48 -200 -90 -282c3 4 5 7 7 7c-1 0 -28 -65 -31 -72c-11 -24 -22 -50 -34 -75c-27 -59 -54 -118 -78 -179c-18 -45 -43 -99 -43 -150 c1 -45 52 -44 86 -41c15 2 28 7 42 11c9 3 28 15 37 14c21 -2 -14 -41 -19 -47c-29 -29 -79 -55 -121 -41c-43 14 -71 64 -85 104c-18 49 -19 102 -8 153c11 45 33 85 51 127c0 1 3 19 8 24c-1 -3 -5 -18 -5 -18l10 25c-1 -1 -1 -1 -2 0c-1 13 14 37 19 49l27 54 c17 34 34 67 48 102s31 68 48 102c5 8 38 85 44 85c0 0 -5 -15 -4 -16c6 17 21 45 16 63c0 -1 -1 -18 -3 -18c-1 1 2 19 -6 22c-5 1 -13 -5 -16 -7c-26 -14 -46 -39 -65 -61c-45 -50 -88 -103 -127 -158c-20 -28 -40 -57 -61 -84c-7 -10 -16 -16 -23 -22 c-9 -9 -13 -24 -20 -34c-36 -60 -76 -117 -111 -178c-15 -24 -25 -47 -36 -74c-6 -15 -8 -39 -21 -50c-31 -30 -68 9 -70 42c-2 44 19 94 34 135c18 52 47 100 64 152c38 118 104 227 135 347c4 15 18 55 3 67c-12 9 -35 -3 -45 -9c-40 -24 -67 -69 -88 -108 c-11 -19 -20 -39 -27 -59c-4 -9 -9 -20 -10 -30c0 -2 5 -9 1 -17c-6 -10 -16 -12 -27 -6c-20 11 -22 44 -21 64c0 26 8 50 21 73c4 7 10 12 14 20c4 9 4 18 11 28c29 42 73 75 121 90c29 9 60 12 85 -8c22 -18 25 -43 32 -68c15 -49 -6 -97 -19 -146 c-14 -51 -38 -99 -52 -150c-10 -37 -23 -73 -38 -109l5 8c-6 -9 -10 -18 -13 -28zM518 458l-76 -155c22 43 49 82 72 125c28 52 52 109 65 168c-1 -2 -1 -3 0 2v2c-5 -23 -20 -56 -22 -61zM114 283l4 12c-17 -45 -42 -91 -62 -136c-13 -31 -24 -62 -33 -94 c-4 -14 -7 -29 -9 -44c-1 -7 2 -22 1 -28c4 10 2 24 4 36c2 13 6 27 10 40c9 29 19 58 32 86c19 41 40 84 53 127v1zM125 310c5 5 5 8 2 9c-4 -5 -4 -8 -2 -9zM426 565c-12 -12 -23 -25 -34 -39c11 13 22 26 34 39zM206 276c-2 -2 -3 -4 -4 -6zM371 500c-1 -1 -1 -1 -1 -2 l4 6zM579 600c0 1 1 3 1 4c0 -1 -1 -2 -1 -4zM386 518l6 8zM636 615l-1 3c0 -1 0 -2 1 -3zM125 310c0 1 1 1 1 1zM371 500c0 -1 -1 -1 -1 -1c1 0 1 1 1 1zM202 270l-3 -4z"></glyph><glyph glyph-name="O" unicode="O" d="M453 446c8 41 60 -9 69 -26c23 -45 8 -99 -3 -144c-15 -63 -43 -122 -74 -178c-52 -95 -136 -226 -254 -238c-72 -7 -128 51 -160 109c-1 2 -14 18 -15 26c1 -5 8 -14 10 -18c-5 10 -8 19 -11 27v-2s-14 44 -14 49c-2 20 0 40 2 60c6 47 21 91 32 136c11 46 30 88 51 129 c9 18 18 36 29 53c2 5 24 45 29 44l-6 -11l28 45l-2 -2c4 6 9 17 12 21l21 30c15 20 29 40 44 59c34 43 73 83 120 110c31 18 68 35 103 20c37 -17 83 -60 87 -102c2 -23 -13 -56 -25 -74c-29 -45 -70 -86 -112 -118c-21 -17 -50 -42 -79 -37c-12 1 -41 13 -30 29 c0 1 3 2 7 4h-1c2 1 39 26 41 28c3 3 36 34 39 33c0 0 -28 -29 -30 -32c34 29 62 65 84 105c12 23 31 58 25 86c-6 29 -37 18 -56 7c-41 -25 -74 -68 -101 -106c26 36 58 77 97 101c-21 -15 -42 -39 -54 -52c-72 -82 -126 -183 -171 -282c-43 -95 -85 -205 -93 -309 c-3 -38 1 -89 49 -93c18 -1 37 4 53 10c10 4 19 8 27 13c0 0 21 12 16 7c10 7 19 15 28 23c-2 -1 -25 -17 -25 -16c1 9 27 27 33 33c11 11 22 23 32 36c22 29 41 60 58 92c35 64 62 133 79 204c7 29 14 60 13 91c0 6 -3 14 -2 20zM57 249c24 70 61 137 99 200 c37 60 74 122 121 175c12 13 26 29 41 43c-14 -12 -26 -26 -38 -38c-49 -55 -92 -115 -132 -177c-40 -63 -74 -134 -97 -205c-15 -45 -29 -93 -35 -141c7 48 25 98 41 143zM450 682c-5 0 -9 0 -13 -1c25 8 32 -7 30 -27c1 14 -3 26 -17 28zM456 613c4 11 9 25 11 38 c-1 -14 -6 -27 -11 -38zM244 458c-1 -1 -2 -2 -2 -3c0 0 0 1 1 2l-22 -38l20 33l4 7l-1 -1l-1 -1zM453 604c-2 -6 -4 -9 -5 -10zM246 461l5 10l-7 -12l1 1zM422 676c-2 -2 -3 -2 -4 -2zM218 412l-3 -4z"></glyph><glyph glyph-name="P" unicode="P" d="M533 754c52 15 96 -42 100 -90c-1 3 0 -6 0 -4c0 -6 1 -19 -1 -20c1 1 -1 7 -2 11c1 -18 -1 -34 -4 -51l5 12c2 -9 -5 -22 -7 -31c-7 -24 -15 -48 -25 -70c-18 -44 -44 -81 -74 -117c-30 -37 -61 -70 -99 -99c-14 -11 -28 -15 -42 -23c-13 -7 -23 -19 -37 -27 c-36 -22 -81 -50 -123 -57c-7 -1 -15 -1 -21 0c-6 0 -13 1 -19 2c-8 5 -13 2 -14 -8c-16 -18 -24 -56 -32 -79c-20 -53 -40 -110 -47 -166c-1 1 -2 2 -2 4c-18 -19 -72 -29 -81 4c-1 2 -1 4 -1 5c-1 -1 -1 -2 -1 -4c-15 19 1 62 5 81l21 102c7 30 15 61 28 89 c4 10 10 19 14 29c1 1 6 28 8 29c1 -1 1 -3 1 -4c1 3 2 5 2 8c-4 -9 1 16 1 17c4 12 9 24 14 36c8 19 13 36 17 55c2 8 32 91 42 89c1 0 -3 -7 -2 -8c4 9 8 18 11 27c-1 -2 -2 -4 -4 -5c-2 1 53 120 58 132c9 22 18 46 31 66c6 8 13 11 17 17c3 4 4 12 7 17 c5 10 16 34 29 39c21 9 36 -19 42 -35s3 -22 -3 -33l3 2c3 -1 -17 -40 -21 -39c-1 0 1 5 3 9c-29 -53 -54 -108 -77 -164c3 6 52 116 55 115c-2 1 -57 -129 -62 -141c-19 -46 -36 -93 -49 -141c23 46 47 90 76 133c26 38 57 71 85 107c0 0 9 19 14 20c0 0 -11 -16 -10 -15 l14 18c-1 0 -1 0 -2 1c2 14 25 34 34 44c13 15 27 29 41 42c22 22 53 60 84 69zM532 632v1c5 96 -94 -33 -111 -53c-54 -65 -112 -136 -156 -207c1 3 3 4 5 4c0 0 -32 -61 -36 -67l-40 -78c4 2 44 20 46 18c0 -1 -20 -11 -28 -16c101 42 185 121 246 212 c-20 -29 -43 -56 -67 -82c-15 -15 -31 -31 -47 -45c-8 -6 -26 -16 -34 -24c9 11 28 21 37 30c12 10 24 21 35 32c24 26 47 53 67 82c39 55 78 123 83 192c-1 -2 -1 -3 0 1zM40 115c-5 -18 -9 -43 -13 -63c17 57 39 116 57 174c-13 -39 -34 -68 -44 -111zM20 -13 c2 11 -1 23 1 34c-4 -16 -7 -31 -10 -48c1 5 8 10 9 14zM240 469l-1 -1l-20 -51zM241 473c-1 -2 -1 -2 -1 -3c0 1 1 1 1 3zM243 477v1l-1 -2zM256 359c0 0 1 1 1 2c0 -1 -1 -1 -1 -2z"></glyph><glyph glyph-name="Q" unicode="Q" d="M404 99l-5 -11c-4 -10 -11 -19 -18 -27c-12 -14 -37 -29 -45 -45c-7 -16 28 -42 38 -53c19 -21 33 -44 51 -66c5 -7 28 -23 19 -31c-13 -13 -35 16 -43 22c-20 13 -40 23 -58 40c-16 15 -43 26 -54 45c-48 -38 -118 -94 -181 -62c-31 16 -55 46 -71 75 c-3 6 -24 38 -19 43c0 0 8 -16 10 -16c-10 16 -17 33 -22 52v-1c-8 -3 -6 121 -4 134c15 93 56 187 101 269c21 39 45 77 76 108c32 33 55 77 87 111c25 28 61 67 102 68c20 1 37 -10 51 -23c4 -4 25 -23 17 -28c5 2 0 -8 -2 -9c-3 -3 -7 -2 -10 -2c-2 0 -3 0 -5 -1 c8 1 -6 -3 -9 -4c-7 -3 -14 -10 -20 -14l-41 -33c23 22 42 42 72 56c-23 -8 -42 -25 -61 -40l12 11c-111 -92 -190 -214 -246 -346c50 102 114 200 189 286c-74 -94 -131 -200 -178 -309c20 47 44 93 70 138c12 23 25 45 39 67c8 14 27 32 32 47c-5 -16 -18 -29 -27 -43 c-11 -16 -21 -35 -32 -52c-19 -34 -37 -69 -54 -105c-32 -67 -59 -136 -78 -209c-11 -43 -28 -104 -3 -145c35 -58 110 -9 146 20c-13 13 -29 27 -36 44c-8 17 -1 41 21 44c18 2 34 -22 47 -33c15 -13 15 -11 29 3c38 39 68 88 98 133c23 37 48 74 67 113 c-4 -6 -16 -20 -15 -22c-4 15 24 54 30 67c15 35 29 70 41 107c9 28 20 60 21 90c1 31 -18 34 -44 25c-52 -19 -95 -59 -130 -100c-10 -12 -23 -41 -38 -45c-21 -5 -18 21 -16 35c10 53 52 88 90 123c33 30 80 75 128 59c42 -15 67 -61 78 -101c15 -53 -1 -110 -20 -160 c-22 -59 -51 -114 -85 -167c-19 -29 -39 -57 -60 -86c-5 -8 -20 -37 -30 -45c3 3 5 10 8 14z"></glyph><glyph glyph-name="R" unicode="R" d="M533 754c52 15 96 -42 100 -90c-1 2 0 -5 0 -5c0 -5 1 -18 -1 -19c1 1 -1 7 -2 11c1 -18 -1 -34 -4 -51l5 12c4 -20 -17 -64 -23 -79c-14 -39 -34 -75 -58 -108c-21 -28 -43 -56 -68 -80c-22 -23 -54 -60 -86 -68c97 84 175 186 198 316c-17 -94 -77 -176 -141 -243 c-32 -35 -60 -75 -97 -100c-41 -26 -101 -65 -151 -62c16 -30 32 -59 50 -87l-32 57c28 -46 92 -137 101 -147l69 -79c16 -18 34 -43 51 -57c-2 2 -3 5 -4 7c0 1 35 -20 39 -22c10 -4 20 -8 30 -7c26 0 58 20 75 38c9 10 19 23 21 -4c1 -11 -3 -19 -11 -29 c-32 -41 -76 -90 -133 -95c-21 -2 -41 5 -59 16c-4 3 -52 48 -51 51c1 0 2 -1 2 -1c-1 2 -3 3 -4 4c2 -4 -10 5 -11 6c-7 6 -12 14 -18 22c-9 13 -19 25 -30 38c-5 4 -47 63 -39 69c2 1 4 -4 5 -4c-4 7 -8 13 -11 20c0 -1 1 -3 0 -5c-2 -1 -47 87 -51 95 c-9 18 -22 35 -27 55c-4 13 -1 18 -7 29c-30 -70 -59 -146 -69 -221c-1 1 -2 2 -2 4c-22 -23 -70 -25 -84 6c-15 33 7 86 14 119c10 44 17 87 32 129c6 16 14 31 21 46c2 4 8 34 10 35c1 -1 1 -3 1 -4c1 3 2 5 2 8c-4 -9 1 16 1 17c4 12 9 24 14 36c8 19 13 36 17 55 c2 8 32 91 41 89c2 0 -2 -7 -1 -8c4 9 8 18 11 27c-1 -2 -2 -4 -4 -5c-2 1 53 120 58 132c9 22 18 46 31 66c6 8 13 11 17 17c3 4 4 12 7 17c5 10 16 34 29 39c21 9 36 -19 42 -35s3 -22 -3 -33l3 2c3 -1 -17 -40 -21 -39c-1 0 2 8 5 14c-88 -145 -144 -286 -184 -421 c20 66 48 130 81 191l-10 -23l24 51c-17 -44 -34 -88 -46 -134c23 46 47 90 76 133c26 38 57 71 85 107c0 0 8 18 13 20c-1 -1 -10 -16 -9 -15l14 18c-1 0 -1 0 -2 1c2 14 25 34 34 44c13 15 27 29 41 42c22 22 53 60 84 69zM532 632v1c5 96 -94 -33 -111 -53 c-54 -65 -112 -136 -156 -207c1 3 3 4 5 4c0 0 -32 -61 -36 -67l-40 -78c4 2 44 20 46 18c0 -1 -20 -11 -28 -16c101 42 185 121 246 212c-20 -29 -43 -56 -67 -82c-15 -15 -31 -31 -47 -45c-8 -6 -26 -16 -34 -24c9 11 28 21 37 30c12 10 24 21 35 32c24 26 47 53 67 82 c39 55 78 123 83 192c-1 -2 -1 -3 0 1zM297 592c-5 -12 -11 -23 -17 -34l26 57c2 4 -7 -19 -9 -23zM211 183c-1 0 5 -11 12 -25c-8 14 -14 24 -12 25zM282 61l1 -2v1c-1 2 -1 1 -1 1zM282 61c-1 0 -1 1 -2 2c1 -1 1 -2 2 -2zM256 359c0 0 1 1 1 2c0 -1 -1 -1 -1 -2z"></glyph><glyph glyph-name="S" unicode="S" d="M600 738c17 -14 22 -32 30 -51c12 -22 -10 -51 -22 -69c-18 -27 -39 -52 -62 -76c-17 -17 -35 -38 -57 -51c-20 -12 -49 -9 -25 16c7 4 35 74 49 73c-2 -2 -10 -19 -15 -28c27 37 100 146 43 172c-23 10 -57 0 -80 -8c-26 -9 -51 -23 -73 -40c31 23 67 39 106 46 c17 3 40 7 54 -5c15 -15 6 -31 4 -46c0 25 8 49 -29 52c-31 1 -63 -10 -90 -23c-47 -23 -90 -62 -114 -109c-53 -105 26 -217 67 -311c-20 38 -43 75 -62 113c14 -31 19 -60 36 -90c23 -37 47 -71 60 -113c27 -90 -1 -163 -70 -223l20 14c1 -30 -90 -68 -111 -76 c-60 -24 -139 -29 -199 1c-86 44 -66 155 -24 223c10 16 84 114 106 75c9 -16 -23 -59 -29 -75c-8 -17 -13 -35 -17 -53c-7 -32 -13 -70 1 -101c16 -38 59 -38 94 -28c48 15 91 50 117 93c13 22 22 47 24 73c0 10 -1 19 -3 29c-2 5 -8 14 -6 21c0 -4 4 -11 6 -16 c-2 7 -4 13 -5 21c0 -1 -4 7 -5 7c-3 7 -6 15 -8 22l-18 45c-20 52 -44 103 -66 155c-16 38 -27 80 -29 121c-1 9 -6 70 10 70c-1 0 -4 -16 -3 -16c4 18 11 37 21 56l-7 -10c5 35 47 72 71 94c35 32 79 56 125 68c48 12 91 4 136 -15c18 -7 35 -15 49 -27zM41 -72 c-39 49 -22 156 19 215c-47 -64 -71 -150 -19 -215zM299 510v-14c0 4 1 9 0 14z"></glyph><glyph glyph-name="T" unicode="T" d="M818 732c2 -18 -34 -21 -45 -23c-18 -4 -42 -2 -59 -8c-1 0 -4 -6 -7 -7c-4 -2 -9 -3 -13 -4c-13 -3 -26 -5 -38 -7l-72 -12c-17 -2 -46 3 -55 -15c-2 -4 -1 -10 -2 -15c-4 -12 -12 -23 -18 -34l-38 -76c-19 -35 -32 -73 -48 -109c-9 -21 -21 -42 -27 -64 c-4 -17 -7 -34 -14 -52c-33 -80 -72 -159 -102 -241c-22 -58 -66 -180 -147 -173c-45 4 -82 35 -103 75c-16 30 -29 76 -30 110c0 7 -1 19 4 24c13 14 29 -10 36 -20c24 -34 45 -75 79 -102c16 -12 20 -13 32 3c25 31 42 73 54 111c31 93 67 185 103 277 c35 92 68 185 112 274c-17 -3 -34 -5 -51 -7c-13 -2 -22 -7 -35 -10c-21 -6 -44 -6 -66 -9c-25 -3 -50 -6 -75 1c-24 7 -63 41 -28 59c11 6 28 8 38 9c48 8 95 17 143 20c20 2 37 4 56 8c10 3 20 5 30 6c9 1 26 -1 34 4c13 8 13 24 20 32c13 15 43 13 60 8 c18 -6 22 -14 34 -25c6 -6 -3 -4 6 -7c6 -1 14 1 19 2c12 0 24 1 36 2c48 2 96 3 144 0c5 -1 11 -2 16 -2c2 1 3 7 8 6s8 -4 9 -9zM437 500c24 46 42 98 68 144c-22 -33 -55 -81 -70 -117c-18 -41 -61 -158 -81 -209c19 43 68 155 83 182z"></glyph><glyph glyph-name="U" unicode="U" d="M614 540c1 -10 -5 -13 -10 -18c1 1 2 1 3 1c2 -1 -22 -38 -25 -36c-2 0 9 17 8 17c-35 -52 -63 -107 -87 -164c12 25 48 101 55 106c-7 -9 -52 -108 -56 -117c-17 -40 -33 -82 -45 -124c-11 -41 -20 -82 -32 -123c-10 -35 -24 -75 -28 -108c1 4 2 8 5 12 c-1 -1 -1 -48 0 -55c2 -12 0 -14 10 -13c17 2 37 30 47 41c7 9 20 33 31 37c8 4 10 3 14 -6c6 -14 -4 -41 -9 -55c-6 -17 -15 -30 -25 -45c-15 -22 -31 -38 -60 -37c-27 2 -51 14 -67 36c-26 36 -29 85 -24 127c2 16 8 29 12 43c1 5 1 35 4 36c1 -1 1 -2 1 -3c1 2 1 4 1 7 c-2 -2 0 22 2 27c3 13 7 26 11 39c7 24 9 48 17 72c-28 -45 -56 -91 -87 -133c-30 -39 -63 -74 -96 -110c0 0 -11 -15 -16 -17c3 2 12 13 12 13l-19 -18c11 8 -5 -9 -9 -11c-5 -5 -12 -8 -19 -9s-15 1 -22 3c-41 13 -79 49 -100 86c-11 21 -12 42 -11 65c2 22 5 43 9 64 c2 6 11 50 15 50c0 0 -2 -13 -1 -13c4 18 8 36 13 53l-6 -13c-2 15 12 41 16 55s8 28 13 42c11 36 24 71 40 105c16 37 30 75 48 111c9 17 16 37 29 52c8 9 12 11 17 23c14 30 31 65 52 92c4 5 8 10 14 14c29 15 64 -16 76 -41c8 -22 1 -29 -9 -42c3 2 6 4 6 3 c0 -6 -40 -61 -44 -60l14 23c-23 -32 -43 -65 -62 -100c3 4 6 8 8 9c-12 -13 -70 -158 -76 -172c-23 -56 -43 -114 -57 -174l3 30l-1 -6c0 3 1 6 1 9l-6 -25l4 10c-6 -51 -26 -104 -18 -157c1 -7 3 -20 11 -24c24 -11 90 76 101 90c33 38 68 78 95 116 c-2 -2 -11 -16 -15 -15c0 0 38 59 42 66c16 22 31 45 46 68l98 148c16 24 36 65 58 80c27 19 76 -5 80 -37zM353 65c9 40 10 75 21 115c-13 -35 -24 -70 -30 -108c-8 -46 -11 -98 -2 -144c-8 41 2 96 11 137zM186 445c-16 -40 -32 -80 -44 -121c-5 -14 -8 -28 -11 -42 c15 53 36 104 59 157c30 67 64 132 106 192c-42 -58 -82 -119 -110 -186zM163 348c11 28 41 100 63 146c-24 -48 -45 -97 -63 -146zM480 282l7 20l-18 -46c4 8 8 17 11 26zM240 523v1v-1zM315 655c0 -1 -1 -2 -2 -2c1 0 2 1 2 2z"></glyph><glyph glyph-name="V" unicode="V" d="M171 479l6 -114c4 -66 -12 -130 -20 -191c1 3 2 6 4 8c4 2 1 -19 1 -20c26 50 61 95 87 145c39 73 93 138 143 204c43 55 86 109 136 158c22 22 48 39 71 59c6 5 3 8 12 11c16 5 36 -16 41 -29c13 -36 -55 -48 -72 -63c-8 -7 -9 -15 -17 -23c-8 -9 -19 -16 -28 -25 c-21 -20 -43 -39 -62 -61c-66 -76 -124 -155 -180 -238c-12 -18 -28 -36 -37 -56c-5 -10 -9 -24 -15 -35c-30 -52 -62 -103 -90 -157c-19 -37 -25 -85 -50 -118c-15 -20 -102 -38 -101 4c0 14 14 33 19 46c10 30 15 61 20 92c4 29 7 60 15 88c3 10 6 16 7 26c0 0 -1 23 1 24 c0 -1 1 -2 1 -3c0 2 1 4 1 7c-3 -9 -4 12 -4 13c-1 9 1 18 1 27c2 21 4 41 2 62c-1 11 -8 103 2 105c2 1 1 -7 3 -7c-1 9 -1 19 -1 28c-1 -2 -1 -4 -2 -5c1 3 -10 110 -11 118c-1 20 -5 39 -8 58c-2 10 -4 21 -5 31c-1 8 2 16 2 22c0 7 -5 12 -3 21c3 16 22 29 34 38 c16 11 36 24 56 25c16 2 16 -6 19 -17c0 1 1 3 2 5c3 1 11 -41 7 -42c-2 -1 -3 3 -4 7c5 -34 9 -69 11 -103c-1 28 -2 52 -2 52s2 -34 4 -78v-11v1v-2v1v-2v1c0 -2 1 -2 1 -4c0 1 -1 2 -1 3c0 -2 0 -3 1 -5c0 -6 0 -12 1 -18c0 0 -1 0 -1 1l3 -64c0 1 -1 3 -1 4 c0 -1 1 -3 1 -4zM90 251v3c3 43 2 89 1 133c1 -87 -6 -173 -18 -260c-5 -35 -12 -70 -19 -105c-2 -9 -5 -18 -7 -25c7 18 13 37 18 58c15 65 19 130 25 196z"></glyph><glyph glyph-name="W" unicode="W" d="M918 710c8 -26 -24 -39 -40 -52c-8 -6 -17 -13 -23 -19c-9 -9 -5 -9 -11 -19c-14 -23 -35 -44 -52 -65c-19 -24 -34 -48 -51 -72c-15 -22 -36 -43 -47 -67c-8 -19 -17 -38 -29 -57c-26 -40 -49 -82 -73 -124c-18 -31 -28 -64 -46 -97c-28 -51 -53 -105 -78 -158 c-7 -15 -14 -29 -17 -43c-4 -16 -8 -24 -27 -26c-35 -3 -68 26 -72 60c-6 43 -1 91 0 135c1 23 3 50 11 73c3 10 6 14 7 25c1 3 1 16 2 14c0 9 -2 20 1 33c3 16 8 32 10 48c0 6 8 90 21 88c2 0 -1 -6 1 -6c1 6 2 13 4 19c-1 0 -1 -1 -2 -1c1 0 13 55 15 60l-38 -49 c-16 -22 -37 -42 -51 -65c-30 -50 -63 -97 -95 -146c-31 -45 -59 -92 -86 -139c-15 -26 -35 -52 -44 -81c-1 -5 -2 -10 -4 -15c-13 -30 -60 -36 -86 -21c-25 15 -19 40 -11 63s13 41 19 64c12 50 34 97 47 146c13 48 26 96 38 144c20 78 36 161 41 243 c-5 -67 -23 -137 -36 -202c-17 -81 -41 -165 -67 -244c10 40 16 81 27 121c5 17 12 32 17 49c1 1 6 33 7 34c0 -1 0 -2 1 -3c0 2 1 3 1 5c-3 -6 -2 17 -1 18c1 9 3 18 5 27c5 20 9 38 10 58c0 11 9 98 18 98c2 0 0 -7 1 -8c2 9 3 18 4 28c-1 -2 -1 -4 -3 -5c1 3 4 51 4 56 c-46 -31 -33 41 -22 62c8 18 25 39 47 40c5 0 6 -4 11 -4c5 -1 6 2 10 1c17 -3 27 -19 34 -34c9 -19 12 -39 13 -60c0 -13 -5 -20 -5 -29c0 1 1 2 2 3c4 1 2 -41 -3 -41c-1 -1 0 18 0 17c-6 -59 -18 -119 -29 -177c3 11 23 117 24 117l-36 -199c-13 -67 -24 -134 -42 -200 l53 76c21 29 34 59 57 88c23 27 43 57 65 85c12 17 18 34 30 50c37 53 83 105 121 153c4 5 3 11 14 14c12 3 27 -6 35 -14c11 -9 18 -22 19 -36c1 -15 -7 -16 -11 -25l4 3c3 -1 -8 -33 -11 -33c-2 0 -2 4 -1 8c-16 -46 -26 -93 -35 -140c2 4 10 42 17 69 c-11 -54 -29 -163 -31 -174c-3 -35 -6 -70 -12 -105c-4 -24 -12 -51 -14 -73c0 1 1 2 3 4c3 2 1 -44 1 -46c18 42 36 85 57 126c15 30 34 58 48 89c33 73 73 141 116 209s86 137 136 200c19 24 42 45 62 69c5 6 1 11 13 13c16 3 33 -17 38 -30c0 0 -1 1 0 -1zM474 323 c-3 -10 -2 -16 -2 -23c2 12 5 23 8 37c0 -1 -1 -2 -1 -3c-3 -7 -6 -14 -5 -11zM510 458c0 0 -3 -6 -5 -15c2 10 4 15 5 15z"></glyph><glyph glyph-name="X" unicode="X" d="M665 726c7 -4 35 -37 24 -44c2 -14 -15 -27 -22 -38c-18 -25 -38 -48 -58 -71c-44 -51 -85 -103 -130 -151l-30 -32c-11 -13 -17 -19 -17 -34c-1 -32 12 -67 16 -99c7 -63 9 -133 21 -191c0 5 0 11 3 11c9 -3 19 -64 23 -75c8 -22 16 -45 31 -64c12 -16 29 -30 51 -29 c23 0 55 15 71 32c5 5 11 22 20 18c7 -3 6 -20 5 -27c-5 -23 -32 -43 -47 -59c-49 -56 -122 -71 -176 -15c-33 34 -51 78 -63 123c-5 20 -6 40 -9 60c-1 4 -12 28 -10 33c0 -1 2 -5 3 -7l-2 16c1 -12 -5 5 -6 6c-3 7 -3 15 -4 21c-3 16 -5 32 -7 48c-4 32 -13 62 -17 93 c-103 -113 -201 -232 -313 -337c-16 -15 -32 -31 -50 -43c-11 -7 -23 -20 -28 -2c-7 24 32 67 45 85c14 20 40 41 51 62c4 7 4 14 9 22c9 14 21 27 31 40c20 26 42 50 63 76c34 43 73 85 103 131c18 28 44 53 67 77c14 16 14 24 12 45c-1 15 -4 30 -6 44 c-4 34 -6 68 -11 101c-5 35 -14 70 -16 104c-1 11 3 18 1 28c-1 8 -7 19 -10 27c-8 27 -16 40 -36 57c-15 13 -2 20 15 25c25 9 41 10 59 -7c-1 2 -2 4 -2 6c1 3 43 -38 34 -45c0 0 -12 18 -14 19c17 -25 29 -53 38 -84c-1 7 -2 11 -2 11c2 0 23 -95 24 -104 c6 -35 11 -71 16 -107c36 50 77 97 118 144c28 33 56 69 89 97c13 11 27 14 43 3zM471 14c-14 48 -21 104 -28 156v6c-2 14 -6 28 -9 43c5 -52 3 -111 14 -160c10 -51 40 -147 104 -158c-46 11 -70 73 -81 113zM412 479c2 2 1 4 -1 7c1 -3 1 -5 1 -7z"></glyph><glyph glyph-name="Y" unicode="Y" d="M40 306l3 7v-1c6 13 6 38 9 51c8 32 16 64 27 95c20 57 41 116 68 170c7 13 17 22 25 34c8 11 12 26 18 39c9 20 22 56 44 64c24 10 50 -12 64 -30c13 -22 13 -35 1 -54c2 2 5 4 5 3c0 -8 -33 -59 -38 -57c0 0 12 24 13 27c-19 -31 -37 -62 -52 -95c2 3 3 4 5 5 c-6 -4 -39 -97 -42 -106c-32 -83 -55 -169 -66 -258c-2 -18 -9 -64 23 -55c23 7 43 35 58 53c52 61 106 121 152 187c-1 -1 -14 -15 -14 -14c-4 11 15 30 20 37c13 16 24 33 35 50l91 143c14 21 29 42 41 64c9 16 14 29 35 29c25 0 58 -26 69 -51c0 0 0 -1 1 -2 c0 -1 0 -2 1 -2h-1c1 -1 1 -2 1 -2l1 -1c9 -44 -38 -93 -51 -133c-9 -29 -15 -57 -26 -85l-38 -95l-76 -189c-24 -58 -42 -118 -69 -175c-46 -101 -94 -211 -165 -298c-56 -69 -169 -19 -201 51c-42 95 46 192 111 251c8 7 75 78 79 52c2 -10 -16 -27 -21 -34 c-12 -15 -23 -31 -33 -48c-24 -38 -44 -79 -59 -122c-9 -27 -23 -65 -12 -93c12 -34 50 -21 70 -2c28 27 46 67 64 101c105 205 178 423 251 641c-42 -70 -83 -140 -129 -207c-21 -29 -43 -57 -68 -83c-10 -9 -19 -18 -27 -29c-4 -5 -10 -21 -17 -21l5 8 c-3 -4 -7 -7 -10 -10c1 0 2 0 3 -1c-6 -29 -51 -45 -76 -39c-33 8 -73 37 -95 63c-20 24 -25 52 -23 83c1 6 1 58 11 59c1 0 -1 -12 0 -13c2 14 4 27 7 41c-1 -1 -1 -3 -2 -3zM104 471c4 11 10 22 14 33c0 0 34 61 33 61c28 76 41 93 75 157c-22 -40 -51 -81 -69 -121 c-20 -45 -37 -85 -53 -130zM347 -41c20 44 38 87 56 131c-6 -11 -23 -37 -27 -48c-13 -33 -15 -51 -29 -83zM637 636v1h-1z"></glyph><glyph glyph-name="Z" unicode="Z" d="M677 726h1c1 1 3 2 4 2c0 0 1 0 1 1v-1c24 8 28 -28 18 -46c-4 -6 -42 -44 -48 -38c-1 1 7 8 8 9c-27 -14 -47 -38 -69 -59c-4 -4 -9 -8 -13 -13c-62 -53 -120 -113 -178 -169c-75 -73 -132 -159 -199 -239l73 86c46 54 98 103 149 153l-75 -91c-25 -29 -52 -52 -74 -82 l7 5c-7 -5 -34 -51 -38 -56c-30 -41 -60 -81 -87 -125c14 -4 29 -3 44 -7c15 -3 27 -11 40 -18c24 -11 51 -23 77 -27c57 -10 120 10 168 41c7 4 39 32 48 23c6 -8 -9 -27 -13 -32c-25 -37 -71 -65 -111 -84c-52 -26 -100 -40 -156 -15c-42 20 -79 68 -130 64 c-23 -1 -44 -15 -61 -30c-12 -11 -18 -31 -36 -25c-20 7 -34 37 -24 56c9 18 29 33 40 51c29 47 54 97 88 141c16 21 37 36 52 56c5 5 7 12 12 17c1 1 9 12 6 4c4 5 3 6 7 15c5 8 12 16 18 23c19 21 37 44 55 66c7 9 58 74 68 66c1 0 -5 -6 -4 -7l21 22c-12 -10 11 16 14 19 l49 50c28 28 56 62 88 84c-80 -7 -161 25 -240 1c-17 -5 -33 -13 -46 -26c-6 -6 -8 -18 -16 -17c-28 5 10 62 16 69c9 14 14 29 28 39s34 13 52 15s36 1 55 0c19 0 39 3 58 1c89 -9 170 -13 253 28zM283 245c-1 0 -1 -1 -1 -1z"></glyph><glyph glyph-name="zero" unicode="0" d="M353 496c23 -29 32 -66 32 -103c0 -28 -7 -55 -11 -82c-4 -22 -3 -44 -6 -65c-5 -29 -14 -56 -23 -84c-27 -79 -62 -167 -130 -221c-27 -21 -52 -25 -83 -34c-10 -3 -14 -8 -28 -7c-20 2 -41 13 -55 27c-14 13 -23 30 -29 49c-25 -1 -20 114 -19 129c0 17 2 34 5 51l6 28 c2 11 -1 19 1 31c5 40 24 84 39 122c6 15 12 29 19 43c7 16 9 32 18 47c19 36 49 69 84 91c53 33 139 31 180 -22zM339 388c1 11 1 15 1 14c-1 36 -9 81 -44 92c-13 4 -11 -1 -21 -7c-24 -13 -42 -24 -61 -44c-11 -11 -16 -33 -25 -51c-10 -20 -20 -38 -27 -59 c-8 -24 -18 -45 -21 -68c-2 -22 -12 -42 -17 -63c-10 -37 -14 -75 -13 -111c1 -25 -4 -49 -2 -73c1 -18 0 -59 21 -67c15 -6 37 5 48 14c32 29 55 75 74 112c11 22 26 43 34 66c8 26 14 53 23 79c16 51 27 102 30 155v11zM21 139c14 89 37 174 78 253 c-31 -59 -58 -120 -73 -186c-14 -60 -24 -131 -14 -194c-5 44 2 91 9 127z"></glyph><glyph glyph-name="one" unicode="1" d="M285 500c2 -4 4 -11 3 -16c-3 -26 -17 -58 -26 -82c-5 -13 -12 -26 -17 -39c-8 -19 -7 -35 -13 -53c-11 -32 -25 -63 -36 -96c-9 -27 -23 -56 -27 -84c-10 -65 -31 -131 -45 -196c-5 -23 -14 -42 -40 -43c-22 -1 -64 11 -67 37c0 4 1 7 1 10c6 38 23 78 34 115 c9 30 25 58 33 88c10 39 20 77 34 114l36 102l17 48c3 9 22 43 19 52c-7 19 -83 -8 -105 0c-13 5 -16 13 -9 25c3 5 7 8 11 12c4 2 7 3 11 4c2 0 3 1 2 4c38 19 84 11 123 21c14 4 16 14 34 7c12 -6 23 -17 27 -30zM193 324c-8 -26 -17 -51 -26 -76c17 22 28 58 34 96z M128 132c4 7 9 13 11 20c0 -1 -1 4 -1 3c-2 -2 -3 -3 -4 -6v5c-5 -10 -19 -27 -11 -32c-1 0 -2 2 -3 1c-2 -2 3 -3 4 -2s2 4 2 7c0 0 1 1 1 2v1zM161 233c1 0 1 1 1 2l27 81l-4 -10c-15 -37 -25 -76 -38 -112c5 13 10 26 14 39zM220 403c0 1 0 1 1 3c0 1 1 7 0 6 c-8 -9 -10 -26 -13 -39zM133 149c2 1 -3 -9 -6 -18c1 6 2 14 6 18zM142 183c-1 -1 -1 -4 -1 -5c0 1 1 3 1 5z"></glyph><glyph glyph-name="two" unicode="2" d="M172 83c-17 -22 -33 -44 -47 -69c-13 -23 -32 -49 -39 -74c51 10 101 25 154 26c14 0 89 -6 73 -37c-4 -8 -25 -11 -32 -13c-21 -5 -43 -9 -64 -12c-46 -7 -91 -12 -137 -15c-41 -4 -115 -7 -106 55c1 13 10 24 12 37c0 0 -3 4 -2 6c1 7 4 13 7 19c19 38 48 73 75 104 c12 13 28 27 37 41c5 9 7 20 14 30c26 35 52 69 80 102c23 27 42 57 64 85c20 27 46 55 53 88c3 17 5 22 -19 18c-35 -6 -71 -31 -98 -53c-13 -11 -58 -75 -68 -40c-5 20 15 42 26 55c41 55 126 100 195 102c29 1 68 -8 76 -41c12 -46 -30 -90 -50 -127 c-25 -45 -56 -85 -87 -126zM123 68c4 2 9 19 12 24c6 9 14 16 21 24c11 11 29 24 34 39c3 2 4 4 2 5l-34 -35c-8 -9 -17 -16 -24 -27c-1 -1 -14 -31 -11 -30z"></glyph><glyph glyph-name="three" unicode="3" d="M364 484c2 -43 -21 -88 -42 -125c-22 -39 -48 -77 -80 -110c32 7 68 -22 75 -50c7 -25 6 -51 -2 -76c-10 -31 -17 -61 -34 -89c-42 -72 -108 -147 -197 -150c-46 -2 -125 22 -106 85c6 21 15 47 29 64c7 10 48 42 50 12c1 -3 -6 -14 -6 -17c-4 -12 -6 -24 -7 -36 c-1 -21 1 -51 26 -56c39 -6 71 56 89 81c33 45 68 99 81 155c12 47 -20 35 -50 18c-18 -9 -45 -31 -66 -26c-19 4 -23 25 -18 40s28 33 40 46l23 24c4 4 7 4 10 9c0 1 -2 6 -1 8c10 26 35 47 50 71c12 20 25 41 36 62c3 6 14 40 12 45c-3 5 -10 5 -15 6 c-41 3 -84 -38 -108 -64c-11 -11 -23 -19 -32 -31c-6 -6 -11 -17 -20 -18c-21 -3 -20 26 -15 39c13 35 49 50 74 74c36 33 200 112 204 9zM197 -27c12 14 74 55 95 152c-7 -30 -30 -58 -44 -85c-12 -24 -33 -45 -51 -67z"></glyph><glyph glyph-name="four" unicode="4" d="M376 354c-9 -23 -10 -44 -19 -67c-10 -25 -19 -49 -27 -74c9 2 75 15 65 -10c-9 -25 -61 -16 -76 -28c-8 -5 -7 -18 -9 -27c-2 -17 -7 -32 -12 -49c-16 -48 -26 -97 -37 -145c-8 -37 -21 -79 -69 -64c-21 7 -41 22 -40 46c2 30 19 61 30 88c15 40 22 83 37 123 c-36 -8 -72 -22 -109 -27c-7 0 -71 7 -67 18h3c-2 1 -3 1 -4 3c1 -4 -8 7 -9 9c-4 6 -3 14 -3 21c2 18 13 35 17 52c2 8 24 85 35 83c2 -1 -2 -6 0 -7l9 22c-1 -1 -2 -3 -4 -4c-1 1 35 93 38 101c7 18 12 37 19 55c5 13 13 22 18 32c10 21 34 38 59 23c9 -6 16 -16 18 -26 c3 -14 -4 -17 -6 -27c0 1 1 3 3 4c4 -1 -5 -36 -10 -35c-1 0 3 14 3 15c-11 -34 -24 -68 -38 -101l9 20c-26 -61 -79 -191 -86 -207c37 7 78 10 112 16c-4 0 -7 0 -11 1c-2 3 15 7 13 6c7 5 6 2 11 9c6 10 9 27 13 39c11 29 20 60 30 90l26 74c5 15 14 32 16 48 c1 8 -3 7 -3 17s7 25 12 33c6 11 14 22 27 25c8 2 18 1 25 -2c6 -3 7 -7 12 -9c3 -2 6 0 8 -1c11 -7 16 -18 17 -31c2 -23 -15 -48 -22 -70c-7 -21 -16 -41 -24 -62zM270 77c8 18 12 36 17 54c-5 -12 -11 -25 -15 -38c-5 -15 -9 -30 -13 -45c3 10 7 20 11 29zM121 356v-1 c0 -1 -1 -2 -1 -2c1 0 1 1 1 1c8 17 22 33 24 53c-3 -8 -12 -19 -15 -26c-4 -8 -7 -16 -9 -25zM200 378c8 19 14 31 14 31zM158 284l-2 -3c-2 -4 -4 -8 -5 -12l5 11z"></glyph><glyph glyph-name="five" unicode="5" d="M398 469c8 -1 -12 -26 -16 -20c0 2 1 3 1 4c-14 -10 -32 -16 -50 -21c14 3 26 6 26 6c1 -3 -132 -29 -145 -32c-17 -4 -11 -1 -17 -14c-5 -10 -7 -25 -10 -36c-6 -17 -16 -35 -20 -51c1 3 2 4 5 5c7 -4 -14 -54 -17 -62c19 4 39 3 58 6c12 2 20 8 36 8c15 1 33 -1 48 -6 c30 -11 44 -42 42 -73c-2 -21 -13 -39 -16 -60c-3 -18 -7 -35 -15 -54c-20 -42 -45 -83 -81 -115c-26 -23 -46 -40 -82 -49c-41 -9 -96 -10 -129 19c-25 22 -15 54 -7 82c7 19 30 70 60 62c20 -5 2 -34 0 -46c-5 -29 -5 -74 34 -74c34 0 60 46 76 71c14 22 108 203 45 197 c-34 -3 -64 -26 -96 -36c-14 -4 -30 -3 -39 11c-5 10 -1 17 1 27l20 115c4 20 13 34 20 51c1 3 6 27 5 14c2 8 -2 10 1 23c3 12 10 23 13 35c3 15 4 29 16 41c2 2 3 5 6 6c4 3 8 3 12 5c8 1 2 -1 2 -3l14 4c-1 0 -1 1 -2 2c-2 7 112 11 124 6c7 -2 5 -6 12 -8 c6 -2 19 0 26 -3c10 -2 51 -17 40 -35c-3 -3 -3 -2 -3 -2s0 -1 -1 -3zM282 89c-10 -20 -18 -41 -27 -61c22 35 42 71 53 110c-5 -17 -18 -34 -26 -49zM260 418l-19 -4c6 1 13 2 19 4zM260 418c3 0 7 1 10 2zM300 425c-2 0 -4 -1 -5 -1c1 0 2 0 5 1z"></glyph><glyph glyph-name="six" unicode="6" d="M350 189c14 -70 -24 -126 -48 -186c-23 -59 -104 -100 -165 -93c-56 6 -101 49 -115 103c-12 45 7 95 25 136c17 40 33 83 48 125l-18 -41c-19 -40 -28 -51 -44 -92c18 80 41 126 71 202c12 32 29 62 41 93c9 21 14 49 32 65c24 22 71 17 81 -18c4 -13 -1 -22 -6 -34 c-33 -77 -69 -153 -96 -231c13 12 30 19 43 30c9 9 13 16 28 21c13 5 27 7 41 5c46 -7 73 -42 82 -85zM255 153v-2l3 10c0 1 0 2 1 3c0 0 0 1 1 2v1c7 20 14 51 3 62c-14 14 -43 -5 -55 -13c-26 -18 -48 -43 -67 -69c-17 -24 -23 -59 -30 -89c-5 -24 -23 -134 34 -95 c28 20 49 58 65 88c17 31 32 64 44 98c0 0 0 1 1 4zM255 153l3 8s0 2 1 3zM259 164c0 1 0 1 1 2v1s-1 -1 -1 -3z"></glyph><glyph glyph-name="eight" unicode="8" d="M474 431v-1c1 -37 -25 -65 -49 -89c-10 -10 -12 -21 -21 -32c-15 -18 -35 -33 -53 -47c-19 -16 -38 -31 -57 -45c-17 -13 -17 -12 -7 -31l10 -17c16 -30 35 -62 38 -96c14 -144 -156 -195 -267 -153c-77 29 -84 110 -45 174c19 32 46 59 73 84c16 14 33 27 50 40 c6 4 12 8 18 13c13 9 16 6 13 20c-9 42 -47 81 -38 127c11 62 113 86 164 90c59 6 37 -21 -1 -41c-27 -15 -53 -28 -71 -55s-5 -58 6 -86c41 33 81 69 111 113c9 12 19 26 24 40c9 23 -9 39 -3 61c10 43 75 0 91 -25c8 -13 14 -28 14 -44zM158 -52c55 -3 108 40 110 97 c2 42 -24 84 -42 120c-34 -29 -71 -57 -100 -90c-15 -17 -33 -39 -29 -62c-5 -35 28 -64 61 -65zM62 93c3 2 3 4 2 5c-10 -12 -20 -23 -28 -35c-9 -13 -17 -24 -15 -40c0 -5 2 -13 4 -18c0 1 8 -8 8 -5c1 4 -7 16 -8 21c0 13 5 23 11 33c8 12 22 25 26 39z"></glyph><glyph glyph-name="nine" unicode="9" d="M372 386c1 -22 -4 -43 -9 -64c-10 -45 -22 -89 -36 -133c-26 -80 -63 -155 -93 -233c-11 -28 -27 -56 -62 -51c-11 2 -21 7 -29 14c-10 10 -7 12 -4 24c4 20 16 39 24 58c22 55 52 106 72 162c-12 -31 -33 -62 -46 -93c-20 -45 -39 -89 -57 -134c-8 27 20 66 29 88 c24 59 52 118 74 178c-15 -13 -32 -23 -44 -35c-13 -12 -29 -19 -47 -21c-8 -1 -16 -1 -24 0c-66 11 -89 79 -82 139c5 36 21 70 37 102c9 16 12 31 23 47c39 55 115 92 182 70c49 -16 87 -66 92 -118zM283 383c4 19 16 71 -11 80c-19 7 -37 -15 -47 -27 c-46 -53 -80 -126 -97 -193c-4 -17 -15 -50 8 -56c20 -5 45 15 59 26c23 19 52 47 64 74c13 29 19 65 24 96zM244 185c4 5 4 8 1 8c-3 -4 -4 -7 -1 -8z"></glyph><glyph glyph-name="seven" unicode="7" d="M398 456c2 -20 -10 -41 -17 -57c-11 -25 -30 -48 -46 -71s-29 -49 -44 -74c-11 -17 -24 -34 -32 -52c-35 -79 -86 -155 -131 -230c-18 -30 -46 -66 -85 -41c-17 11 -33 34 -30 55c2 9 10 18 13 25l35 67c22 41 49 78 70 120c43 87 106 163 160 243 c-55 -3 -111 -4 -166 -1c-21 1 -45 0 -64 7c-23 8 -9 26 9 34c28 12 64 12 94 12c13 0 27 -2 37 1c13 2 25 5 40 5c35 1 69 -3 104 -2c28 1 49 -11 53 -41zM142 177l68 107c-19 -30 -39 -59 -59 -87c-26 -36 -52 -72 -75 -111c-16 -28 -35 -59 -48 -89c13 27 32 53 48 79z "></glyph><glyph glyph-name="at" unicode="@" d="M320 456c131 9 287 -50 297 -199c2 -63 -28 -126 -65 -176c-30 -41 -77 -85 -132 -82c0 -1 -14 -1 -16 0c-15 4 -26 14 -33 27c-6 10 -19 54 -12 69c-3 -9 3 -25 5 -33c-10 59 16 120 41 174l-13 -20l12 22c-31 -46 -60 -93 -93 -138c-19 -25 -39 -59 -68 -78l-1 -1l1 1 c-33 -20 -72 -20 -88 31c-18 52 -3 112 15 162c21 61 56 128 113 162c69 40 105 -30 121 -87c16 21 37 49 67 47c26 -2 45 -24 41 -51c-3 -16 -14 -31 -22 -46c-9 -18 -19 -37 -27 -55c-16 -35 -30 -71 -39 -108c-4 -14 -18 -53 9 -50c19 3 35 33 45 47c33 49 62 106 70 165 c13 100 -52 187 -155 191c-114 3 -211 -76 -265 -171c-31 -55 -55 -120 -47 -184c6 -49 33 -100 86 -111c4 -2 15 1 24 1c-6 0 -11 -3 -17 -2c14 -2 31 -2 45 1h1c28 10 55 17 78 37c11 11 39 36 30 -1c-10 -41 -79 -57 -114 -64c-71 -13 -142 19 -182 79 c-32 47 -37 99 -29 150v1c2 15 6 31 10 46c-4 0 50 107 61 120c59 76 151 118 246 124zM347 213c0 1 1 1 1 2l1 1c10 14 21 25 21 45c0 12 -3 25 -5 36c-3 14 -8 41 -25 41c-26 -1 -49 -56 -58 -74c-21 -42 -38 -86 -49 -132c-3 -13 -8 -31 -6 -44c2 -7 4 -10 7 -11 c1 0 1 0 2 -1c4 1 8 3 13 6l9 10c15 16 30 40 36 48c18 24 35 48 52 73h1zM368 180c-14 -21 -28 -44 -44 -65c15 22 29 44 44 65zM313 98c0 1 1 2 1 2c3 5 6 10 10 15c0 -1 -3 -6 -11 -17zM404 235c3 4 5 8 7 13c-2 -4 -5 -8 -7 -13zM261 35l-14 -11c5 3 9 6 14 11zM285 61 l2 2c3 3 5 6 7 10zM157 160c1 4 1 6 -1 -2c1 1 1 1 1 2zM282 56l5 7c0 -1 -2 -4 -5 -7zM298 77l-4 -4c1 1 3 2 4 4zM216 -36c-1 0 -2 0 -3 1c1 0 2 -1 3 -1zM15 217c-1 -1 -1 -2 -1 -3c0 1 0 2 1 3z"></glyph><glyph glyph-name="bar" unicode="|" d="M346 849c0 -7 1 -42 -3 -43c0 0 -1 5 -1 10c-1 -25 -4 -50 -7 -74l1 1s-1 -2 -1 -4c-4 -33 -9 -66 -15 -99c-4 -34 -9 -65 -10 -71l-30 -175c-20 -110 -48 -221 -71 -327l5 12c7 -11 -12 -61 -14 -73l-17 -72c-12 -50 -25 -100 -39 -150c-13 -43 -28 -85 -43 -127 c-5 -14 -9 -52 -23 -59c-8 -4 2 46 2 49c9 50 18 101 25 152c8 45 16 90 26 134c3 14 8 27 11 40c2 8 2 41 8 48c-1 -2 -1 -11 -1 -13c1 5 1 11 3 16c-2 -2 -1 9 -1 11l3 18l9 44c5 24 11 48 14 73c4 29 9 57 16 85c1 4 11 63 16 63l-1 -11c3 12 4 25 7 37 c-1 -1 -2 -3 -2 -4c1 -1 53 274 60 300c4 15 10 24 12 39c4 27 11 53 17 80s12 54 20 80c1 5 13 36 18 25c-1 2 -1 3 -1 4c1 2 6 -17 7 -18v-1zM295 495l-9 -49l8 45c0 1 1 2 1 4zM295 494v3v-2v-1zM301 526c-1 -4 -2 -7 -2 -10zM337 744c-1 0 -1 -1 -1 -1s0 1 1 1z"></glyph><glyph glyph-name="backslash" unicode="\" d="M417 -206c2 -16 0 -24 -13 -14c-10 8 -17 27 -23 38c-11 18 -21 37 -31 55c-20 38 -41 76 -58 115c-7 15 -11 30 -17 44c-1 4 -18 31 -17 35c1 -1 2 -2 2 -3l-3 6c0 -2 -9 13 -10 16l-15 32c-8 18 -15 36 -25 53c-5 10 -55 103 -47 109c1 1 4 -7 5 -7l-13 28 c1 -2 1 -4 2 -5c-2 -1 -95 211 -101 232c-7 28 -24 60 -36 89c-3 7 -27 70 -13 72c-1 1 -3 1 -3 1c-1 2 13 -1 15 -3c4 -2 24 -24 21 -27c0 0 -13 16 -13 15c15 -18 29 -37 41 -57v1s1 -1 2 -4c12 -20 23 -40 34 -61c15 -27 29 -54 32 -58l67 -135c36 -72 64 -150 95 -223 c0 2 -1 3 -1 5c3 -8 17 -31 19 -37c8 -17 15 -35 22 -52c12 -31 25 -61 36 -92c19 -53 40 -111 46 -167v-1zM157 441l5 -10zM156 445c-1 0 -2 1 -2 1c1 0 1 -1 1 -1h1zM156 445c0 -1 0 -2 1 -3c-1 1 -1 2 -1 3z"></glyph><glyph glyph-name="percent" unicode="%" d="M411 364c-33 -43 -75 -85 -103 -130c-27 -42 -65 -80 -97 -118c-23 -27 -42 -55 -65 -82c-10 -12 -81 -104 -95 -93c-11 10 48 97 53 105c63 90 130 178 202 261c39 46 77 92 119 134c4 5 63 65 68 48c6 -19 -29 -54 -39 -66c-7 -9 -19 -18 -24 -27 c-6 -10 -11 -21 -19 -32zM399 167c23 -2 69 -10 72 -41c5 -46 -11 -101 -45 -133c-14 -13 -28 -16 -45 -22c-1 0 -11 -4 -11 -4c-18 -3 -27 6 -41 15c-8 5 -16 5 -22 18c-5 9 -7 22 -8 32c-1 23 1 42 9 63c11 29 21 55 53 67c-11 -21 -30 -38 -38 -62c6 15 24 33 32 47 c1 2 5 13 7 15c8 7 28 6 37 5zM75 352c-12 3 18 63 23 72c9 19 20 30 44 37c34 10 102 0 103 -46c1 -34 -5 -65 -22 -95c-19 -32 -41 -45 -76 -52c-4 -1 -6 -6 -14 -5c-5 0 -11 2 -15 5c-5 2 -9 5 -13 8c-4 2 -7 1 -11 4c-12 9 -13 15 -11 27c4 16 11 32 11 50 c-1 -18 -13 -41 -14 -58c-8 17 -7 35 -5 53zM448 90v1c1 15 -5 49 -27 44c-1 0 -9 -7 -12 -9c-8 -6 -9 -8 -11 -11c-8 -12 -17 -31 -21 -46c-1 -4 -2 -13 -4 -20s-4 -16 -4 -23c0 -18 -2 -55 28 -37c11 8 30 35 36 47c7 15 13 38 15 54zM143 322c0 -8 1 -36 7 -40 c7 -4 18 4 23 8c29 22 53 75 49 111c-2 13 -11 35 -29 31c2 0 -18 -14 -18 -14c-6 -6 0 -4 -3 -9c-10 -15 -15 -30 -19 -45c-2 -9 -5 -37 -10 -42z"></glyph><glyph glyph-name="bracketright" unicode="]" d="M407 624c2 -44 -13 -94 -25 -136c-6 -23 -13 -45 -21 -67c-3 -6 -6 -41 -12 -45c0 1 2 13 2 13l-5 -17c2 3 -1 -18 -2 -21c-3 -13 -7 -26 -11 -38c-6 -21 -13 -42 -17 -63c-6 -26 -13 -51 -21 -76c-1 -3 -15 -51 -19 -51l2 10c-4 -11 -7 -21 -10 -32l2 3 c-8 -18 -55 -219 -86 -235c-17 -9 -38 -7 -57 -9c-27 -3 -56 -1 -83 1c-16 1 -56 1 -68 14c-11 10 -2 9 7 11h-4c7 2 49 15 52 8c0 0 -23 -4 -22 -4c21 3 42 4 63 5c9 1 34 -3 42 2l2 2c-1 0 -1 -1 -2 -2c0 2 -28 -1 -29 1c0 1 28 0 29 1c6 4 9 34 11 41l24 80l43 149 c25 91 59 182 86 271c-1 -3 -2 -5 -4 -7c3 6 7 30 8 34l11 36l25 81c-40 3 -90 8 -126 27c-42 22 40 28 55 31c25 4 159 32 160 -18zM183 -47l32 94c9 29 16 60 24 91c-9 -31 -18 -62 -32 -91c-12 -27 -22 -57 -29 -86c-4 -15 -6 -30 -9 -44c5 12 10 24 14 36zM126 -70 c-4 -13 -7 -24 -9 -28c4 6 7 19 9 28zM168 78l-6 -20c2 8 5 16 7 25c0 -2 -1 -4 -1 -5zM173 97c0 -2 -1 -3 -1 -5c0 2 1 3 1 5zM271 105c-1 0 -1 -1 -1 -1z"></glyph><glyph glyph-name="slash" unicode="/" d="M576 585c6 0 -17 -44 -20 -48c-17 -28 -38 -53 -59 -78c0 0 1 0 1 1c-17 -21 -31 -47 -48 -69l-113 -140c-54 -66 -104 -135 -160 -200c0 -1 -1 -2 -1 -2l-12 -14c-36 -42 -74 -94 -112 -138c-18 -21 -36 -43 -55 -64c-7 -8 -29 -38 -42 -35c-17 5 2 33 6 41 c-1 -2 1 3 1 2v-1v1c0 -1 -1 -2 -2 -6c3 5 3 7 3 7l4 8c-6 13 29 55 36 66c28 44 59 87 89 129c46 63 95 125 144 186c63 81 131 159 201 235c26 29 53 58 82 85c17 16 33 31 57 34zM-33 -150l14 25c-3 -4 -15 -20 -14 -25zM496 457c0 0 1 1 1 2c0 -1 -1 -2 -1 -2zM-37 -158 l-1 -1s1 0 1 1zM165 36l-1 -1c1 0 1 1 1 1z"></glyph><glyph glyph-name="numbersign" unicode="#" d="M78 327c3 15 19 12 31 12c-10 1 -24 4 -31 -5c3 6 8 7 17 8c25 2 52 1 78 2c25 1 39 2 49 26c10 25 23 47 38 69c11 15 67 77 81 36c6 -17 -13 -37 -21 -50c-16 -26 -28 -54 -45 -79c2 0 4 0 6 -1c1 2 8 4 9 4c6 2 15 1 22 1l39 -3c17 -1 23 -1 33 15c12 22 22 46 36 68 c11 18 26 39 45 50c15 8 40 11 41 -11c2 -20 -21 -46 -31 -62c-14 -23 -26 -48 -42 -71c14 -2 66 1 77 -14c7 -9 -31 -16 -35 -16c-11 -2 -20 -2 -30 -2c-4 0 -27 -2 -21 0c-15 -3 -21 -22 -28 -33l-31 -47c36 -3 77 -5 111 -16c7 -2 15 -2 3 -12c-9 -8 -27 -6 -38 -6 c-18 -1 -35 -6 -53 -7c-12 -1 -23 1 -35 0c-27 -1 -35 -23 -48 -44c-17 -28 -39 -53 -60 -79c-7 -8 -34 -52 -34 -18c0 17 18 36 26 50c16 27 27 56 42 83c-26 -1 -52 -2 -78 -2c-19 1 -33 2 -46 -13c-28 -32 -50 -69 -77 -101c-2 -3 -22 -33 -25 -32c-15 3 -2 31 2 38 c10 18 22 32 29 50c7 20 15 37 26 54c-18 1 -41 5 -53 20c-14 17 -6 33 14 37c21 4 56 -9 73 6c6 5 7 14 10 20c5 12 13 22 19 33c-18 -1 -35 1 -51 4c1 -1 -4 -3 -7 -2c-4 2 -9 4 -12 7h1c-7 4 -15 9 -20 15v-2c0 -1 -1 2 -3 5c-1 3 -3 6 -3 10c-1 2 -1 4 -1 5v4 c0 -1 1 -3 1 -4zM317 249c7 15 16 29 26 42c-6 0 -13 1 -19 3h-4c-1 0 -3 0 -1 1c-3 -1 -11 -1 -13 -1c-4 -1 -15 -3 -18 -3c-11 -1 -24 0 -35 -3c-27 -6 -37 -39 -51 -60c19 0 38 1 57 1c12 0 35 -5 46 0c9 5 9 10 12 20zM126 339c3 0 6 1 10 1h1c1 0 -20 -1 -11 -1z M153 341c-4 0 -8 -1 -12 -1c4 0 8 0 12 1zM77 331c0 1 1 1 1 2c-1 -1 -1 -1 -1 -2z"></glyph><glyph glyph-name="underscore" unicode="_" d="M773 -97c0 -1 -1 -1 -1 -1c0 -1 -1 -1 -1 -1c0 -1 0 -1 -1 -1c-1 -1 -2 -1 -2 -1c-1 -1 -2 -1 -2 -1c-1 0 -2 0 -4 -1c-2 0 -4 0 -6 -1c-5 0 -9 -1 -13 -1c-9 -1 -18 -1 -26 -1c-11 0 -21 -1 -30 -1c-9 1 -18 1 -28 1c-3 0 -4 1 -4 1h-9c0 -2 -3 -5 -15 -5l-58 -2 c-15 0 -28 1 -44 1c-13 -1 -34 -2 -46 -2c-8 1 -17 0 -25 0c-3 0 -7 1 -11 1c-9 0 -18 -1 -28 -1c0 -1 -3 -2 -9 -3c-14 -1 -27 -1 -42 -1h-22c-6 1 -11 2 -17 2c-16 -1 -30 -2 -46 -2h-78c2 -2 -26 -4 -33 -4h-75c-13 0 -27 0 -41 1c-14 0 -28 1 -41 3c-6 1 -13 2 -19 4 c-7 1 -14 3 -20 6c-3 1 -6 3 -9 5s-6 4 -8 7c0 1 -1 2 -1 3v3l3 5c3 2 6 2 9 3c2 0 3 0 3 -1c2 1 5 1 8 1h1c8 0 13 0 19 1c5 0 10 1 16 2h33c23 0 47 1 71 1c23 1 46 2 69 1c11 0 21 -1 32 -1c8 0 15 -1 22 -1h16c16 1 32 3 49 3h55l54 -2c16 0 32 0 48 -1c6 0 13 -1 19 -1 c88 -2 176 -5 255 -12c4 0 7 0 10 -1h7c0 1 0 2 2 2c1 1 3 1 4 1h4c1 0 1 0 2 -1h2c0 -1 0 -1 1 -1c0 -1 1 -1 1 -1v-5z"></glyph><glyph glyph-name="bracketleft" unicode="[" d="M282 581l3 11c-2 -9 -3 -20 -4 -25c-14 -56 -32 -111 -48 -166c-33 -112 -70 -222 -105 -333c1 3 3 7 6 10c-8 -17 -10 -39 -15 -57c-9 -31 -19 -63 -29 -94c15 -1 156 -21 136 -45c-5 -6 -18 -6 -25 -7l-54 -10c-30 -4 -61 -9 -91 -6c-24 1 -52 7 -55 36 c-4 28 8 57 14 85c8 35 17 70 30 104c3 9 7 44 13 50c-1 -2 -1 -9 -1 -12c2 5 2 11 4 18c0 0 2 13 2 16c3 13 7 25 11 38c8 29 16 57 23 87c1 5 25 107 35 107c0 0 -2 -9 -2 -10l7 21c2 7 8 17 0 7c0 0 53 174 58 188c4 11 7 25 14 35c14 21 40 18 63 20c39 3 77 3 116 -2 c13 -2 45 -1 50 -16c2 -5 -9 -5 -11 -6c6 0 -16 -4 -20 -5s-27 -8 -30 -3c0 0 8 2 15 3c-21 -3 -43 -4 -64 -4c-12 0 -24 3 -35 -3l-1 -1c3 2 30 3 31 1c0 1 -28 0 -30 -2c-2 -1 -3 -3 -4 -5c1 2 2 4 2 5c-4 -7 -7 -20 -9 -30zM218 568c1 4 2 8 4 12 c-17 -37 -34 -74 -44 -113l-23 -82c3 10 7 19 11 29c21 50 39 101 52 154zM240 433v2c-2 -9 -5 -17 -7 -25c2 7 4 15 7 23zM123 276l7 26zM246 453l-4 -11zM289 606c-2 -4 -3 -8 -4 -14c1 6 3 11 4 14zM239 617l-5 -11c2 3 3 7 5 11zM234 606l-3 -5zM230 401l3 9zM128 66v2 v-2z"></glyph><glyph glyph-name="cent" unicode="¢" d="M329 377v-3c4 -29 -9 -69 -26 -91c-10 -13 -26 -17 -22 6c4 22 12 44 9 68c-2 12 -17 26 -31 15c-8 -6 -12 -35 -16 -45c-5 -13 -11 -26 -15 -40c-9 -29 -16 -57 -26 -86c-22 -60 -42 -120 -65 -179c4 -1 9 -2 14 -1h-1c10 2 30 14 31 14c18 15 31 38 43 57 c8 13 13 31 22 43c11 14 24 9 25 -11c0 -16 -11 -29 -17 -42c-7 -18 -14 -35 -27 -51c-11 -14 -25 -27 -42 -34c-10 -4 -19 -3 -28 -4c1 0 2 -1 3 -1c1 -3 -24 -5 -22 -5c-18 0 -16 -2 -23 -18c-3 -6 -10 -30 -14 -33c-18 -16 0 46 3 56c-18 3 -33 10 -44 21 c8 -9 16 -16 16 -15c-2 -5 -32 31 -34 34c-10 19 -13 40 -14 60c-1 41 7 84 19 123c24 81 68 143 143 175h-5c-2 1 32 14 32 14c10 8 13 31 17 45c5 15 10 34 23 45c7 7 28 18 35 4c3 -5 -1 -10 -2 -15c-6 -24 -12 -47 -20 -71c26 1 53 -4 59 -34c-1 1 -1 1 0 -1zM202 333 c2 4 3 9 4 13c-23 -10 -43 -49 -55 -69c-7 -11 -15 -22 -21 -33c-1 -2 -9 -31 -12 -32v3l-3 -7c4 8 0 -7 0 -8c-1 -8 -5 -16 -7 -24c-5 -16 -9 -33 -9 -49c-1 -27 2 -64 17 -87c12 52 36 103 45 155c5 24 14 47 21 71c6 20 9 49 20 67zM85 274c-6 -10 -8 -20 -11 -32 c4 7 9 14 12 18c0 1 1 1 1 1v1c26 38 50 76 88 101c-25 -16 -45 -35 -66 -56c-9 -10 -18 -21 -24 -33zM41 37l11 -14c-15 20 -21 44 -22 70c0 -19 3 -39 11 -56zM124 -11h2c1 1 2 1 4 1c-3 0 -6 0 -6 -1zM155 22c-1 0 -3 -1 -4 -1c1 0 2 0 4 1zM73 240c0 0 0 1 1 2 c0 0 -1 -1 -1 -2z"></glyph><glyph glyph-name="braceright" unicode="}" d="M296 313c5 -13 20 -8 29 -17c21 -21 -12 -47 -31 -54c-8 -4 -17 -4 -26 -7c-11 -3 -17 -8 -25 -17c-2 -2 -17 -24 -18 -24l3 8c-5 -9 -9 -17 -12 -26c0 1 1 2 2 3c0 0 -41 -123 -45 -134c-8 -21 -15 -43 -26 -64c-9 -18 -20 -29 -32 -43c-23 -29 -54 -57 -95 -55 c-8 1 -19 0 -20 11c-2 14 15 15 24 17h-4c8 3 34 22 36 25c-1 -3 -12 -15 -13 -16c48 36 56 121 70 177c-8 -29 -31 -120 -35 -119c2 0 45 159 51 174c20 54 56 109 119 115c-43 33 -29 90 -20 134c-1 -4 -4 -10 -5 -9c-8 8 15 73 18 83c9 31 19 62 23 95c4 25 4 45 -20 57 c-7 3 -17 2 -20 10c-10 24 34 26 46 26c50 4 81 -19 84 -70c3 -50 -10 -103 -25 -150c-7 -21 -15 -40 -23 -60c-2 -4 -5 -35 -9 -38c-1 0 -1 1 -1 2c0 -2 -1 -4 -1 -6c1 7 1 -6 1 -7c0 -6 -2 -15 0 -21zM271 621c23 -21 8 -84 -4 -124c10 29 21 57 24 88c1 12 -9 27 -20 36z M116 106l-3 -9zM140 175l-4 -8zM145 184l-3 -5zM151 195l-4 -6z"></glyph><glyph glyph-name="dollar" unicode="$" d="M322 389c4 -30 -38 -74 -60 -91c-5 -3 -19 -14 -25 -7c-2 4 2 8 6 12c-1 0 -1 -1 -2 -1c1 0 22 40 24 39c1 0 -9 -19 -8 -18c11 19 25 42 27 65c1 8 1 17 -6 23c-3 3 -16 7 -18 3h3c-1 -1 -2 -1 -3 -1c-5 -3 -10 -34 -12 -39c-3 -12 -7 -24 -11 -35 c-6 -18 -14 -35 -19 -54c-4 -12 -6 -24 -10 -36c-4 -15 -7 -17 2 -31c45 -65 51 -122 -1 -181c3 3 9 8 9 7c5 -15 -51 -48 -62 -53c-12 -5 -26 -5 -38 -9c-2 -1 -6 1 -7 0c-3 -2 -7 -16 -9 -20c-3 -6 -11 -32 -17 -31c-12 3 4 46 6 52c-48 8 -77 39 -66 91c4 16 33 84 60 77 c12 -4 6 -8 5 -15c-3 -18 -15 -37 -18 -56c-3 -16 -4 -37 4 -52c3 -5 8 -11 14 -13c12 -4 11 -3 16 8c4 9 -2 5 -1 12c3 13 6 25 10 38c5 18 12 36 17 55c4 16 15 35 10 50c-6 18 -24 35 -33 52c-10 19 -14 40 -13 61c0 4 3 42 9 42c0 0 -2 -8 -1 -8c1 6 3 11 5 17 c-7 -38 -8 -83 19 -115c-10 14 -18 37 -17 53c0 14 3 27 3 41c-1 12 -5 20 0 32c0 -1 -1 -1 -1 -1l2 3l-1 -1l2 3l5 9c7 10 14 20 23 30c16 17 36 32 57 42c12 5 19 5 25 15c4 7 5 17 8 24c7 12 18 28 34 28c21 -1 12 -17 9 -30c-2 -7 -5 -19 -5 -27c0 -15 -1 -8 16 -17 c14 -7 33 -25 34 -42zM184 88v1c-1 8 -10 31 -8 35l5 -11l-6 16c3 -11 -9 11 -7 7c-15 -41 -28 -82 -44 -122c14 3 27 10 36 21c7 6 11 14 15 23c3 8 3 24 9 30zM209 399l2 5c-60 -23 -60 -79 -36 -129c11 41 20 81 33 121v-1c0 1 1 1 1 3c0 -1 -1 -2 -1 -2c0 1 0 2 1 3z M282 385c0 0 0 18 -8 26c3 -1 5 -3 7 -6c1 -2 4 -20 1 -20zM263 414c5 1 9 0 11 -3c-3 2 -7 3 -11 3zM114 354c-1 -2 -2 -3 -2 -4zM112 350c-1 -1 -1 -2 -1 -2z"></glyph><glyph glyph-name="parenright" unicode=")" d="M367 487c2 -34 0 -68 -7 -102c-2 -11 -6 -20 -9 -30c-1 -3 -2 -33 -6 -35v3l-2 -6c2 2 0 -17 -1 -19l-10 -37c-6 -19 -12 -38 -17 -57c-2 -8 -32 -92 -41 -90c-1 0 3 7 2 8c-4 -9 -8 -18 -13 -26c1 1 2 3 4 4c5 -2 -61 -101 -67 -108c-25 -30 -50 -56 -84 -71 c-29 -13 -57 -29 -91 -24c-13 2 -34 12 -21 28c8 9 18 3 28 2l-1 1c6 0 37 17 38 17c1 -1 -8 -7 -13 -10c49 28 80 92 104 143c-15 -29 -54 -100 -61 -100c7 2 58 99 62 108c19 39 36 80 49 122c24 71 51 152 62 225c0 -1 -1 -2 -1 -3c0 0 2 27 2 31c2 12 3 25 3 38 c2 27 3 57 -5 84c-6 21 -15 29 -35 36c-10 3 -25 6 -16 21c11 17 51 13 67 8c15 -4 29 -11 40 -23c31 -33 37 -87 40 -132v-3c1 -15 1 -8 0 -3zM198 166l-10 -26zM177 116l8 19zM185 135l1 1c0 1 1 3 2 4c-1 0 -1 -1 -2 -3zM187 138c0 1 1 3 1 2c-1 -1 -1 -1 -1 -2z"></glyph><glyph glyph-name="question" unicode="?" d="M446 675v-1c0 -11 -7 -65 -16 -69c-1 1 0 2 0 3l-3 -6c2 4 -4 -16 -5 -17c-5 -13 -12 -24 -19 -35l-30 -51c-4 -7 -53 -82 -60 -79c-1 0 4 7 3 7c-5 -8 -11 -15 -17 -23l4 3c-8 -8 -120 -179 -133 -193c-19 -22 -33 -56 -48 -83c-6 -10 -20 -38 -34 -19c-6 8 -1 19 1 28 l-2 -5c-1 0 2 44 8 44c1 0 -3 -18 -3 -19c5 25 13 50 23 74l-6 -11c-1 0 53 108 58 118l71 118l70 112c9 14 55 73 41 87c2 -2 1 -11 1 -10c-10 8 -3 15 -27 8c-35 -8 -69 -37 -94 -62c-12 -12 -40 -65 -59 -38c-10 15 -1 36 8 50c38 55 108 98 173 112c37 7 88 2 95 -43z M130 10c14 0 -10 -37 -12 -41c-7 -16 -17 -21 -31 -34c-12 -11 -22 -24 -41 -14c-7 3 -25 19 -29 27c-14 30 23 71 46 83c18 9 37 14 57 6c5 -1 5 3 10 -3c6 -8 0 -17 0 -24zM214 372c-16 -27 -29 -55 -46 -80c17 24 29 49 46 73c14 21 25 43 36 66c-12 -21 -26 -40 -36 -59 zM212 413l-16 -26zM252 433c-1 -1 -1 -2 -2 -2c1 0 1 1 2 2zM190 376c0 -1 -1 -1 -1 -2c0 1 1 1 1 2z"></glyph><glyph glyph-name="exclam" unicode="!" d="M339 679c-1 -11 -3 -20 -6 -30c-9 -26 -20 -52 -30 -78c-19 -50 -35 -101 -52 -152c-28 -83 -48 -169 -78 -252c-6 -15 -29 -98 -54 -72c-16 16 2 67 6 86c6 25 15 49 21 74c26 107 49 216 69 325c4 28 13 57 14 85c0 16 -2 29 13 42c29 25 92 15 97 -27v-1zM152 10 c14 0 -10 -37 -12 -41c-7 -16 -17 -21 -31 -34c-12 -11 -22 -24 -41 -14c-7 3 -25 19 -29 27c-14 30 23 71 46 83c18 9 37 14 57 6c5 -1 5 3 10 -3c6 -8 0 -17 0 -24zM226 470c-4 -20 -9 -40 -15 -59c-7 -20 -13 -41 -15 -61c-2 -19 -7 -30 -11 -46c7 25 23 50 28 77 c6 30 11 58 13 88v1zM184 300c0 1 0 2 1 4c-1 -2 -1 -3 -1 -4z"></glyph><glyph glyph-name="parenleft" unicode="(" d="M368 637c5 -21 -22 -15 -33 -14c0 0 1 -1 2 -1c-7 0 -38 -17 -38 -17c-1 1 8 7 12 10c-50 -28 -81 -96 -105 -147c9 18 33 64 49 88c-25 -41 -74 -149 -80 -160l10 27c-35 -79 -75 -156 -102 -239c-10 -31 -43 -149 -25 -208c-26 94 89 350 109 393 c-16 -44 -27 -89 -40 -133c-12 -41 -27 -87 -34 -127l3 9c-2 -8 -2 -38 -3 -43c-2 -18 -3 -36 -3 -53c0 -31 2 -79 36 -90c12 -4 35 -5 20 -24c-17 -19 -59 -10 -78 -1c-59 25 -65 106 -68 163c-1 33 2 67 9 99c2 9 5 17 8 26c0 1 2 33 6 35v-3c0 2 1 4 1 6c-1 -3 1 17 2 19 c2 12 6 25 10 37c6 19 12 38 16 57c2 8 32 92 42 90c0 0 -3 -7 -2 -8c4 9 8 18 13 26l-4 -4c-2 1 45 79 50 86c20 28 44 58 72 79c21 16 135 70 145 22zM73 -50c6 -4 13 -7 21 -8c-8 1 -15 4 -21 8zM261 564c3 5 5 7 7 8c-1 -1 -4 -3 -7 -8zM257 560l4 4zM70 -47l3 -3z M255 556l2 4z"></glyph><glyph glyph-name="braceleft" unicode="{" d="M424 660c9 -15 -12 -19 -22 -21h3c-7 -3 -34 -22 -36 -25c1 3 13 15 14 16c-49 -36 -56 -121 -71 -178c8 30 31 121 36 120c-3 0 -45 -159 -51 -174c-20 -54 -56 -109 -119 -115c42 -34 29 -91 20 -135c1 4 4 11 5 10c6 -6 -10 -50 -12 -58c-5 -21 -11 -41 -17 -62 c-7 -27 -23 -70 -11 -98c5 -11 12 -14 22 -18c31 -12 12 -31 -13 -35c-28 -4 -64 -4 -83 19c-24 27 -19 71 -14 104c5 42 16 83 31 123c4 12 10 23 14 35c1 3 6 34 9 37v-3c1 2 2 5 2 8c-3 -9 -2 5 -2 6c1 6 3 15 1 21c-5 13 -20 7 -30 17c-20 21 13 47 31 54c9 4 18 4 27 7 c10 3 17 8 25 17c2 2 17 24 18 24l-3 -8l12 26l-2 -2c5 11 32 100 35 108c13 37 25 83 50 114c16 20 36 45 60 58c11 7 60 28 71 8zM149 179v1c3 9 8 47 0 59c10 -16 -15 -76 -18 -87l-28 -98c11 43 29 82 45 123c0 1 0 1 1 2zM289 383l-1 -1c-4 -9 -8 -18 -13 -27 c6 10 11 21 15 31c-1 -1 -1 -2 -1 -3zM294 396l-4 -9h1zM310 444c0 1 1 4 2 8zM149 179c-1 0 -1 -1 -1 -1s0 1 1 2v-1zM208 372c0 -1 -1 -1 -1 -1c1 0 1 0 1 1zM102 49c-1 -1 -1 -3 -1 -5c0 2 0 3 1 5z"></glyph><glyph glyph-name="comma" unicode="," d="M157 21c4 -18 -12 -38 -17 -54c-11 -31 -36 -57 -58 -82c-11 -12 -30 -37 -44 -44c-17 -8 -24 2 -21 17c7 40 48 64 68 96c-11 -3 -40 -14 -51 -9c-14 6 -10 28 -4 38c11 22 38 38 59 48c-10 6 25 21 33 19c15 -3 31 -11 35 -29z"></glyph><glyph glyph-name="hyphen" unicode="-" d="M374 234c2 -15 -29 -19 -39 -20c-15 -2 -21 -7 -36 -10c-33 -5 -67 -7 -99 -14c-26 -5 -55 1 -81 -4c-21 -3 -44 -8 -66 -2c-26 8 -40 42 -35 68c4 18 16 12 31 13c57 1 113 9 171 4c31 -2 62 -6 92 -13c9 -2 61 -14 62 -22zM144 247c24 -1 49 -2 74 4 c-46 -9 -93 9 -139 -2c20 3 45 -2 65 -2z"></glyph><glyph glyph-name="plus" unicode="+" d="M390 234c3 -22 -45 -18 -55 -21c-3 -1 -10 -7 -15 -8c-8 -2 -17 -3 -25 -3c-12 -1 -24 -3 -35 -5c-17 -1 -24 3 -31 -14l-18 -39c-13 -25 -28 -50 -46 -72l-3 3c1 -5 1 -8 -5 -14c-12 -13 -18 1 -18 19c1 9 4 18 5 27c0 6 -1 10 -1 18c0 19 7 44 12 62 c-49 -3 -124 -21 -121 56c1 30 19 21 43 22c21 2 41 2 61 3c8 0 30 -1 36 4c5 4 8 27 9 35c3 15 4 27 10 42c12 34 33 52 72 42c19 -5 24 -10 20 -27c-8 -32 -23 -65 -28 -97c26 -3 51 -6 76 -12c8 -2 56 -13 57 -21zM167 145c5 28 10 56 16 84c7 33 11 74 21 110 c-9 -30 -13 -62 -21 -90c-15 -49 -30 -102 -24 -154c0 18 6 42 8 50z"></glyph><glyph glyph-name="equal" unicode="=" d="M377 310c12 -18 -31 -23 -38 -25c-14 -3 -27 -9 -43 -11c-39 -5 -75 -10 -113 -13c-51 -3 -134 -30 -138 48c-1 19 -2 25 14 28c37 6 78 4 115 7c34 2 71 -3 105 -8c24 -3 49 -9 72 -18c5 -2 24 -6 26 -8zM358 185c23 -9 -22 -26 -28 -27c-17 -2 -24 -8 -41 -10 c-37 -6 -75 -12 -112 -14c-51 -3 -137 -34 -147 42c-2 16 -3 29 12 33c14 4 39 2 54 3c19 1 37 1 56 3c36 4 75 -1 110 -6c22 -4 44 -8 65 -16zM137 159c-27 0 -53 1 -79 -4c49 10 99 -12 148 3c-21 -5 -48 0 -69 1z"></glyph><glyph glyph-name="greater" unicode="&gt;" d="M387 301c2 -15 -28 -33 -39 -42c-19 -16 -41 -30 -59 -46c-25 -21 -55 -37 -82 -55c-21 -13 -39 -32 -63 -30c-47 3 -61 51 -29 80c21 20 47 32 69 49c30 22 64 37 97 53c-58 -44 -110 -100 -172 -139c35 21 66 48 99 73c35 26 58 58 97 78c-34 19 -70 41 -99 69 c-7 7 -24 22 -21 34c2 14 24 4 33 0c16 -8 29 -22 44 -30c3 -2 13 -4 18 -7l23 -16c27 -21 62 -46 84 -71z"></glyph><glyph glyph-name="yen" unicode="¥" d="M326 382c21 -14 -36 -81 -42 -90c-22 -31 -41 -61 -61 -93c9 -2 42 -3 45 -10c9 -18 -31 -12 -37 -15c-1 1 0 1 0 2c-19 -4 -35 -11 -43 -32c17 -1 34 -3 51 -8c2 -1 20 -4 18 -1c10 -13 -11 -14 -20 -15c-5 -1 -6 3 -10 2c-2 -1 -8 -6 -14 -6c-11 -1 -25 2 -35 -1 c-15 -3 -21 -22 -29 -34c-17 -28 -38 -55 -54 -82c14 38 33 67 51 103c10 20 17 40 26 60c1 1 1 2 1 2c-16 -21 -31 -43 -41 -68l-22 -54c-6 -15 -11 -35 -19 -49c-22 -37 -58 4 -49 34c10 29 36 53 49 81c-18 0 -43 26 -21 37c1 1 4 0 5 0c10 3 23 -2 32 2c10 3 12 8 19 18 c-11 -8 -24 0 -32 2c1 -1 1 -2 0 -3c-4 0 -6 1 -8 4v1c-3 2 -5 6 -7 9c0 -1 0 -2 -1 -2c0 0 -8 17 1 23c5 3 22 1 29 2c17 2 36 1 26 20c0 1 1 1 1 1c-3 9 -12 22 -15 33c-4 14 1 19 -1 28c-1 -6 -7 17 -8 21c-4 12 -5 24 -7 36c-1 4 -6 18 -6 26c0 7 2 11 3 15 c-1 0 -2 0 -3 1c-2 5 3 7 4 9v-3c1 5 6 10 11 15c-2 -1 -3 -1 -4 0c2 -2 18 15 27 2c5 -7 4 -24 7 -33c4 -14 9 -26 10 -41c1 -9 -1 -19 0 -27c0 2 0 3 2 4c11 -1 6 -85 6 -92l45 66c15 21 36 42 49 65c8 15 13 35 34 44c18 7 25 0 37 -9zM83 197c-7 -1 -8 -3 -8 -6 c1 3 3 5 8 6zM104 198c-4 0 -7 -1 -10 -1c3 0 6 0 10 1zM129 408c3 -2 5 -5 6 -11c-1 7 -3 10 -6 11zM139 376c-1 2 -1 4 -1 6c0 -2 0 -4 1 -6z"></glyph><glyph glyph-name="less" unicode="&lt;" d="M389 392c12 -37 -36 -61 -60 -76c-24 -14 -45 -32 -70 -45l-78 -39c38 -21 82 -45 110 -79c5 -7 17 -23 8 -29c-13 -12 -51 18 -61 25c-13 10 -24 13 -39 23c-17 12 -32 25 -49 38c-14 11 -27 26 -41 37c-8 6 -11 4 -8 13c3 13 21 22 30 29c15 12 29 24 45 34 c22 15 42 32 64 47l60 40c9 6 19 15 31 17c10 2 26 -1 35 -6c7 -4 12 -9 16 -15c8 -11 8 -11 -1 -21c0 0 -1 -1 -1 -2c2 3 5 6 8 8zM306 316l44 40c-17 -14 -36 -27 -53 -40c-24 -17 -45 -37 -67 -54c25 18 52 34 76 54z"></glyph><glyph glyph-name="Euro" unicode="€" d="M207 335c-3 -2 -13 -15 -14 -17c-10 -13 -24 -39 -32 -57c15 -1 32 -6 45 -9c8 -1 32 -2 38 -8c16 -18 -36 -15 -42 -18c-1 1 -1 1 -1 2c-11 -3 -27 -10 -41 -11c-15 0 -13 5 -20 -10c-1 -2 -9 -19 -10 -19s1 5 0 5c-2 -6 -4 -13 -5 -19c0 1 1 4 2 4c0 -2 0 -3 -1 -5 c31 -2 61 -9 92 -13c6 -1 18 2 17 -7c-1 -14 -27 -8 -34 -10l-17 -5c-14 -3 -29 -1 -43 -2c-13 -1 -17 -1 -21 -12c-9 -28 7 -96 38 -100c11 -1 36 8 45 -2c8 -9 2 -21 -7 -27c-7 -4 -12 -1 -19 -2c1 0 2 -1 4 -1c1 -3 -28 -8 -29 -4l9 2c-40 -4 -80 8 -98 45 c5 -11 11 -20 20 -27c1 -2 39 -22 39 -19c-1 -6 -43 20 -46 23c-13 14 -20 33 -24 51c-2 13 -3 26 -3 40c0 1 2 23 1 25c-4 4 -23 -1 -29 2c-8 3 -14 7 -18 14c-5 10 -4 23 6 28c3 1 18 0 19 0c6 0 12 0 18 1c8 -2 11 1 10 9c5 9 6 22 9 31c-12 -1 -18 2 -27 4 c1 -1 0 -2 0 -3c-5 -1 -7 3 -9 5h4c-5 2 -10 7 -13 12c0 -1 0 -2 -1 -3c-1 0 -11 21 -2 27c6 4 22 1 29 1c10 1 28 2 37 6c6 2 10 9 13 14c-1 -1 -3 -3 -5 -3c-9 11 47 72 55 79c16 15 34 28 54 37c18 8 110 42 118 9c7 -25 -62 -34 -78 -43c-11 -6 -24 -12 -33 -20zM93 83 c1 -5 5 -18 8 -25c-4 9 1 25 1 33c0 15 0 28 -1 42c-1 -6 -2 -13 -4 -18c-3 -12 -7 -19 -4 -32zM16 248c1 2 4 4 9 5c-6 0 -8 -3 -9 -5zM52 77v-1c0 5 -1 10 -1 15c0 -5 0 -10 1 -14zM196 322l-3 -4c-1 0 0 0 3 4zM54 66c-1 2 -1 3 -1 5c0 -2 0 -3 1 -5zM37 253h1h-1z M42 254c-2 0 -3 -1 -4 -1c1 0 3 1 4 1zM61 41c0 -2 1 -3 2 -5c-1 2 -2 3 -2 5z"></glyph><glyph glyph-name="asciitilde" unicode="~" d="M393 212c3 -18 -22 -34 -35 -42c-12 -8 -23 -14 -37 -14c-8 -1 -17 0 -25 1c-19 3 -11 2 -7 2c-27 4 -50 13 -76 21l1 1l-9 3c-4 1 -16 2 -20 2c-15 0 -29 -3 -44 -5c-10 -1 -24 -9 -33 -8c-24 0 -15 19 -3 29c0 1 5 9 10 9v-2c12 9 24 16 37 23l-23 -11 c-2 3 49 23 55 25c48 12 71 -9 109 -30c-6 4 18 -2 19 -2c9 -2 20 -7 29 -7c8 0 48 18 52 6v-1zM186 244l5 1h-2c-2 -1 -4 -1 -3 -1zM196 246c-2 -1 -4 -1 -5 -1z"></glyph><glyph glyph-name="semicolon" unicode=";" d="M201 128c21 -19 9 -45 -1 -66c-9 -21 -15 -37 -31 -56c-9 -11 -19 -21 -27 -31c-7 -7 -15 -13 -22 -21c-8 -7 -15 -21 -24 -26c-13 -7 -25 -4 -25 11c1 39 51 70 70 100c-11 -3 -40 -13 -51 -9c-14 7 -10 28 -4 39c11 21 38 38 59 48c-10 6 19 18 23 19c7 1 28 -4 33 -8z M289 378c13 0 -10 -37 -13 -42c-7 -16 -17 -21 -31 -33c-12 -12 -22 -25 -41 -15c-7 4 -25 20 -29 28c-14 30 23 70 46 82c18 10 38 14 57 7c5 -2 5 3 10 -4c6 -7 0 -16 1 -23z"></glyph><glyph glyph-name="colon" unicode=":" d="M193 96c14 0 -10 -37 -12 -42c-7 -16 -17 -21 -31 -33c-12 -12 -22 -25 -41 -15c-7 4 -25 20 -29 28c-14 30 23 70 46 82c18 10 37 14 57 7c5 -2 5 3 10 -4c6 -7 0 -16 0 -23zM281 378c14 0 -10 -37 -12 -42c-7 -16 -17 -21 -31 -33c-12 -12 -22 -25 -41 -15 c-7 4 -25 20 -29 28c-14 30 23 70 46 82c18 10 37 14 57 7c5 -2 5 3 10 -4c6 -7 0 -16 0 -23z"></glyph><glyph glyph-name="period" unicode="." d="M156 10c14 0 -10 -37 -12 -41c-7 -16 -17 -21 -31 -34c-12 -11 -22 -24 -41 -14c-7 3 -25 19 -29 27c-14 30 23 71 46 83c18 9 37 14 57 6c5 -1 5 3 10 -3c6 -8 0 -17 0 -24z"></glyph><glyph glyph-name="asterisk" unicode="*" d="M311 401c2 -2 7 1 8 -2c1 -5 1 -6 -3 -10c-11 -8 -33 13 -41 17c0 0 -4 -3 -6 -2c-8 2 -15 6 -22 10l-28 14c-12 -25 -27 -50 -44 -71c-3 -4 -21 -28 -24 -29c-22 -3 -3 40 -1 47c0 0 -2 9 -2 11c0 8 4 15 6 23l9 30c-29 -9 -58 -14 -88 -18c-2 -1 -7 -10 -11 -1 c-4 11 18 19 25 22c17 6 35 15 53 25c-19 10 -49 15 -59 38c-7 15 -2 34 16 33c5 -1 10 -6 14 -8c22 -11 44 -28 67 -36l12 45c5 14 12 32 25 39c11 7 47 8 55 -6c6 -11 -11 -42 -14 -52c20 6 63 22 65 -13c4 -1 -5 -10 -6 -11c-7 -6 -21 -9 -30 -12c-8 -4 -45 -12 -49 -19 c-6 -9 36 -32 46 -40c9 -7 18 -16 27 -24z"></glyph><glyph glyph-name="asciicircum" unicode="^" d="M279 435c4 -24 -4 -58 -36 -56c-9 1 -15 6 -21 12c-27 31 -27 89 -26 127c-26 -26 -51 -51 -78 -75c-12 -10 -51 -50 -69 -42c-21 8 30 50 35 57c9 13 16 26 29 39l30 30c19 18 36 37 57 52c17 11 39 32 58 15c19 -16 19 -47 20 -71c2 -29 -2 -60 1 -88z"></glyph><glyph glyph-name="quotedbl" unicode="&quot;" d="M154 525c-22 -48 -36 -96 -66 -140c-8 -11 -21 -21 -24 -4c-2 15 11 31 15 45s6 28 11 41c-22 -2 4 85 7 95c3 11 4 31 10 38c10 10 47 12 57 3c13 -13 5 -27 1 -42c-4 -13 -5 -24 -11 -36zM264 567c1 -25 -13 -49 -24 -70c-15 -28 -24 -55 -43 -82 c-3 -4 -34 -44 -43 -39c-10 4 3 31 6 37c8 19 15 38 24 56c-26 1 16 100 21 112c1 3 -4 5 0 11c5 7 18 7 25 5c13 -5 32 -13 34 -30z"></glyph><glyph glyph-name="quotesingle" unicode="'" d="M172 592c3 -16 -8 -42 -12 -57c-5 -16 -16 -31 -21 -47c-10 -32 -24 -59 -42 -88c-5 -7 -19 -38 -31 -26c-8 8 9 38 11 46c6 15 8 31 15 47c-26 -2 11 105 14 118c0 4 -5 5 1 13c4 6 14 9 21 10c13 1 39 4 44 -15v-1z"></glyph><glyph glyph-name="ampersand" unicode="&amp;" d="M499 261c7 -16 -45 -32 -51 -36c-13 -8 -24 -14 -38 -20c-17 -6 -10 -10 -13 -27c-5 -32 -19 -60 -35 -88c-20 -33 -34 -61 -66 -87c-23 -19 -51 -35 -81 -44c-36 -10 -71 -4 -108 2c-11 2 -33 3 -43 11c-64 29 -10 155 11 197c31 63 75 124 137 159 c-16 10 -31 23 -40 39c-22 40 -11 71 4 108c12 29 44 50 68 68s58 38 86 46c64 17 127 -51 107 -113c-7 -23 -32 -63 -54 -73c-12 -6 -38 -8 -38 12c-1 8 7 13 12 19c12 13 64 77 30 90c-30 11 -86 -39 -107 -57c-17 -16 -69 -65 -51 -93c21 -32 85 12 114 -7 c18 -12 21 -47 4 -59c-16 -11 -39 -1 -57 -9s-35 -19 -51 -30c-8 -6 -14 -11 -18 -18c-4 -5 -6 -12 -11 -18c-14 -20 -28 -39 -41 -59c-21 -33 -39 -73 -49 -111c-5 -17 -9 -54 11 -63c23 -11 67 18 85 30c59 41 103 102 143 162c-21 -12 -50 -10 -73 -15 c-16 -3 -26 -10 -28 12c-2 18 7 25 17 37c0 1 -3 6 0 9s8 3 12 5c9 2 18 -2 26 -1c5 1 8 7 17 9c12 3 27 3 39 5c19 2 31 5 51 6c13 1 28 2 41 4c7 1 32 13 38 -2zM57 83c12 35 31 71 50 103c12 19 22 40 36 58c-9 -8 -18 -18 -26 -28c-19 -27 -32 -50 -44 -80 c-15 -36 -34 -94 -22 -137c-5 28 1 66 6 84z"></glyph><glyph glyph-name="cedilla" unicode="¸" d="M135 -56c3 -48 -45 -72 -85 -74c-12 0 -16 -1 -23 9c-7 11 -9 45 0 54c8 8 9 0 17 -1s53 0 55 8c3 17 -30 13 -37 13c-31 -1 -8 28 2 46c3 6 10 26 16 29c3 1 18 -6 19 -7c4 -8 -8 -23 -11 -28c20 6 44 -31 47 -47l-1 1c0 -1 0 -1 1 -2v-1z"></glyph><glyph glyph-name="tilde" unicode="˜" d="M237 485c3 3 9 21 19 7c9 -12 -10 -25 -14 -31c-6 -8 -11 -15 -21 -21c-17 -10 -40 -12 -57 -8c-21 6 -39 21 -60 25c-13 3 -25 6 -39 2c-11 -3 -26 -18 -37 -9c-33 24 47 63 60 67c48 19 66 -21 107 -37c14 -6 30 -5 42 5z"></glyph><glyph glyph-name="dieresis" unicode="¨" d="M259 502c1 -5 3 -21 1 -26h-1c-2 -14 -11 -26 -21 -36c4 3 8 6 9 6c4 -2 -33 -29 -36 -31c-8 -5 -11 -7 -20 -6c-3 1 -22 12 -19 14c1 1 2 1 3 0c-1 1 -9 8 -8 6c10 -13 -3 0 -4 3c-3 8 -5 11 -4 21c1 16 9 28 21 39c17 16 70 46 77 5c-2 21 -22 25 -39 21 c18 6 32 4 41 -16zM119 513c10 1 -5 -33 -6 -36c-6 -16 -13 -27 -29 -38c-6 -4 -18 -15 -25 -15c-12 -1 -29 16 -35 26c-10 18 6 45 19 59c6 6 13 9 19 14c2 2 -2 6 4 9c7 4 14 0 20 0c1 0 2 4 6 4c5 0 9 -1 13 -3c10 -4 12 -9 14 -20zM194 410c2 4 -5 2 -9 5 c2 -3 5 -4 8 -5h1zM199 510c-2 3 1 4 6 5c0 0 -5 -5 -6 -5zM254 468v1c0 1 0 3 1 5c-1 -5 -3 -10 -5 -14zM258 485c0 7 -2 -1 -2 -6c0 2 1 4 2 6zM210 418c3 1 6 4 10 7zM235 437c1 0 2 1 3 2zM233 435c0 0 1 1 2 1c-1 0 -2 -1 -2 -1zM218 518c-2 0 -3 -1 -4 -1c1 0 2 1 4 1 z"></glyph><glyph glyph-name="circumflex" unicode="ˆ" d="M196 513c2 -27 1 -55 -1 -82c-1 -15 -11 -36 -32 -28c-32 12 -33 74 -33 99c-14 -14 -27 -25 -40 -40c-14 -16 -37 -37 -57 -44c-35 -12 11 45 19 53c30 32 69 84 113 98c12 5 19 2 25 -11c3 -9 2 -18 3 -27c0 -3 -2 -7 -1 -10c0 -3 4 -3 4 -8z"></glyph><glyph glyph-name="caron" unicode="ˇ" d="M198 553c9 -2 -38 -55 -42 -59c-11 -12 -18 -24 -29 -36c-20 -19 -39 -38 -64 -50c-20 -10 -29 -7 -36 17c-8 28 -2 55 -5 83c-2 20 -7 53 18 61c43 14 43 -76 45 -97c7 11 20 17 29 26c9 7 10 10 18 19c10 11 25 21 38 29c3 2 29 14 28 7z"></glyph><glyph glyph-name="grave" unicode="`" d="M141 412c5 -34 -40 6 -48 13c-20 17 -37 42 -59 57c-10 6 -18 6 -10 23c2 3 6 3 7 4c2 3 -2 4 1 7c6 7 17 12 26 13c19 1 26 -3 35 -19c7 -14 17 -24 23 -38c6 -12 10 -25 14 -37c4 -8 9 -12 11 -22v-1z"></glyph><glyph glyph-name="breve" unicode="˘" d="M134 475c5 -1 21 -8 22 -12c2 -7 -8 -18 -11 -23c-15 -20 -30 -31 -55 -33c-16 -2 -32 -3 -47 6c-14 8 -26 34 -21 51c7 20 40 18 55 10c17 -9 5 -15 2 -30c-1 -14 3 -28 19 -18c12 7 18 25 22 37c3 7 -1 13 14 12z"></glyph><glyph glyph-name="ring" unicode="˚" d="M152 481c6 1 -2 -22 -2 -23c-5 -12 -11 -23 -21 -32c-11 -10 -26 -20 -42 -22c-45 -4 -77 24 -63 70c4 12 18 39 27 45c7 4 13 1 19 3c4 1 1 4 5 5c7 2 13 1 20 1c31 -2 61 -12 57 -47zM131 471c4 6 -2 29 -10 33c-5 2 -3 0 -7 0c-17 -4 -20 -14 -26 -25 c-4 -7 -25 -57 -7 -57c-1 12 14 3 18 5c-3 6 14 13 18 18c5 6 9 17 14 26z"></glyph><glyph glyph-name="acute" unicode="´" d="M136 493c6 -3 -31 -36 -34 -39c-15 -17 -37 -33 -54 -46c-4 -3 -19 -14 -25 -9c-10 7 10 47 15 56l37 64c3 6 -2 11 10 12c5 1 17 -2 18 -2c10 -3 21 -7 28 -18c2 -3 4 -16 5 -18z"></glyph><glyph glyph-name="Agrave" unicode="À" d="M553 551c10 -16 0 -22 -7 -31c1 1 2 2 4 2c2 -1 -20 -36 -24 -34c-1 0 2 4 4 8c-30 -44 -51 -92 -69 -142c12 32 36 90 44 95c-7 -8 -44 -105 -47 -115c-14 -40 -25 -81 -31 -122c-7 -42 -11 -84 -16 -125c-4 -33 -12 -71 -9 -101c0 4 0 8 2 12c1 0 8 -44 14 -48 c3 -2 6 1 9 1c18 3 38 31 48 43c7 8 19 32 29 36c36 16 -7 -94 -17 -106c-16 -21 -31 -38 -60 -38c-24 0 -47 9 -65 24c-32 29 -46 74 -48 115c0 18 3 33 6 50c0 4 -2 34 1 35c0 -1 1 -2 1 -3c0 2 -1 4 0 5c-2 0 -3 18 -3 19c1 13 4 25 6 38c4 19 6 37 8 56c0 7 18 92 28 91 c2 0 -1 -7 0 -8l8 28c-53 -86 -108 -174 -167 -257c-19 -25 -53 -80 -89 -82c-33 -2 -63 33 -79 58c0 0 -12 12 -13 17c1 -3 10 -12 10 -12l-12 21c3 -10 -5 7 -6 7c-4 7 -6 15 -7 22c-5 17 -6 35 -6 52c1 36 11 70 18 105c6 36 18 70 32 103c3 6 30 74 37 73 c0 0 -5 -13 -4 -14c6 16 14 32 22 48l-7 -9c1 16 19 37 26 51l30 59c23 40 51 77 80 113c25 31 56 64 95 78c20 7 42 3 62 -1c37 -8 75 -34 103 -58c11 -10 33 -26 32 -43c0 -14 -17 -28 -28 -35c-25 -16 -33 -7 -39 16c0 -1 3 -11 1 -12s-11 31 -12 35c-2 6 -4 13 -7 19 c3 -5 6 -8 8 -10c-4 12 -10 20 -16 24c-10 4 -22 2 -38 -4c-22 -8 -42 -22 -59 -38c-48 -43 -84 -100 -114 -157c19 35 41 68 65 100c12 16 25 31 40 45c7 7 23 16 31 24c-11 -13 -30 -25 -41 -36c-13 -14 -24 -29 -35 -44c-24 -33 -45 -68 -64 -104 c-40 -76 -72 -157 -93 -240c-10 -38 -19 -77 -24 -116c-1 -9 -8 -43 2 -49c15 -9 58 42 65 50c23 24 46 48 66 72c-4 -4 -8 -9 -10 -8c-1 0 38 57 42 62l48 68l100 149c8 12 14 25 21 38c5 11 13 17 19 24c7 7 8 20 15 28c25 31 66 10 84 -17zM106 222 c-4 -32 -9 -66 -11 -99v-4l2 18c2 33 9 66 17 99c16 65 36 132 60 195c23 59 49 116 82 170c16 28 38 59 65 82c-31 -25 -55 -61 -72 -91c-31 -53 -60 -106 -84 -163c-28 -65 -49 -137 -59 -207zM330 69c-1 -20 0 -39 2 -58c-1 11 0 22 1 33c2 19 6 37 8 56c1 16 0 33 2 48 c-3 -7 -5 -14 -7 -20c-5 -20 -6 -38 -6 -59zM181 420v2l-2 -5zM338 696c-4 -2 -8 -6 -12 -9zM434 702c0 -2 2 -5 4 -8zM441 691c0 0 -2 1 -3 3zM458 346l3 8zM465 813c5 -34 -40 6 -48 13c-20 17 -37 42 -59 57c-10 6 -18 6 -10 23c2 3 6 3 7 4c2 3 -2 4 1 7 c6 7 17 12 26 13c19 1 26 -3 35 -19c7 -14 17 -24 23 -38c6 -12 10 -25 14 -37c4 -8 9 -12 11 -22v-1z"></glyph><glyph glyph-name="Aacute" unicode="Á" d="M553 551c10 -16 0 -22 -7 -31c1 1 2 2 4 2c2 -1 -20 -36 -24 -34c-1 0 2 4 4 8c-30 -44 -51 -92 -69 -142c12 32 36 90 44 95c-7 -8 -44 -105 -47 -115c-14 -40 -25 -81 -31 -122c-7 -42 -11 -84 -16 -125c-4 -33 -12 -71 -9 -101c0 4 0 8 2 12c1 0 8 -44 14 -48 c3 -2 6 1 9 1c18 3 38 31 48 43c7 8 19 32 29 36c36 16 -7 -94 -17 -106c-16 -21 -31 -38 -60 -38c-24 0 -47 9 -65 24c-32 29 -46 74 -48 115c0 18 3 33 6 50c0 4 -2 34 1 35c0 -1 1 -2 1 -3c0 2 -1 4 0 5c-2 0 -3 18 -3 19c1 13 4 25 6 38c4 19 6 37 8 56c0 7 18 92 28 91 c2 0 -1 -7 0 -8l8 28c-53 -86 -108 -174 -167 -257c-19 -25 -53 -80 -89 -82c-33 -2 -63 33 -79 58c0 0 -12 12 -13 17c1 -3 10 -12 10 -12l-12 21c3 -10 -5 7 -6 7c-4 7 -6 15 -7 22c-5 17 -6 35 -6 52c1 36 11 70 18 105c6 36 18 70 32 103c3 6 30 74 37 73 c0 0 -5 -13 -4 -14c6 16 14 32 22 48l-7 -9c1 16 19 37 26 51l30 59c23 40 51 77 80 113c25 31 56 64 95 78c20 7 42 3 62 -1c37 -8 75 -34 103 -58c11 -10 33 -26 32 -43c0 -14 -17 -28 -28 -35c-25 -16 -33 -7 -39 16c0 -1 3 -11 1 -12s-11 31 -12 35c-2 6 -4 13 -7 19 c3 -5 6 -8 8 -10c-4 12 -10 20 -16 24c-10 4 -22 2 -38 -4c-22 -8 -42 -22 -59 -38c-48 -43 -84 -100 -114 -157c19 35 41 68 65 100c12 16 25 31 40 45c7 7 23 16 31 24c-11 -13 -30 -25 -41 -36c-13 -14 -24 -29 -35 -44c-24 -33 -45 -68 -64 -104 c-40 -76 -72 -157 -93 -240c-10 -38 -19 -77 -24 -116c-1 -9 -8 -43 2 -49c15 -9 58 42 65 50c23 24 46 48 66 72c-4 -4 -8 -9 -10 -8c-1 0 38 57 42 62l48 68l100 149c8 12 14 25 21 38c5 11 13 17 19 24c7 7 8 20 15 28c25 31 66 10 84 -17zM106 222 c-4 -32 -9 -66 -11 -99v-4l2 18c2 33 9 66 17 99c16 65 36 132 60 195c23 59 49 116 82 170c16 28 38 59 65 82c-31 -25 -55 -61 -72 -91c-31 -53 -60 -106 -84 -163c-28 -65 -49 -137 -59 -207zM330 69c-1 -20 0 -39 2 -58c-1 11 0 22 1 33c2 19 6 37 8 56c1 16 0 33 2 48 c-3 -7 -5 -14 -7 -20c-5 -20 -6 -38 -6 -59zM181 420v2l-2 -5zM338 696c-4 -2 -8 -6 -12 -9zM434 702c0 -2 2 -5 4 -8zM441 691c0 0 -2 1 -3 3zM458 346l3 8zM531 914c6 -3 -31 -36 -34 -39c-15 -17 -37 -33 -54 -46c-4 -3 -19 -14 -25 -9c-10 7 10 47 15 56l37 64 c3 6 -2 11 10 12c5 1 17 -2 18 -2c10 -3 21 -7 28 -18c2 -3 4 -16 5 -18z"></glyph><glyph glyph-name="Acircumflex" unicode="Â" d="M553 551c10 -16 0 -22 -7 -31c1 1 2 2 4 2c2 -1 -20 -36 -24 -34c-1 0 2 4 4 8c-30 -44 -51 -92 -69 -142c12 32 36 90 44 95c-7 -8 -44 -105 -47 -115c-14 -40 -25 -81 -31 -122c-7 -42 -11 -84 -16 -125c-4 -33 -12 -71 -9 -101c0 4 0 8 2 12c1 0 8 -44 14 -48 c3 -2 6 1 9 1c18 3 38 31 48 43c7 8 19 32 29 36c36 16 -7 -94 -17 -106c-16 -21 -31 -38 -60 -38c-24 0 -47 9 -65 24c-32 29 -46 74 -48 115c0 18 3 33 6 50c0 4 -2 34 1 35c0 -1 1 -2 1 -3c0 2 -1 4 0 5c-2 0 -3 18 -3 19c1 13 4 25 6 38c4 19 6 37 8 56c0 7 18 92 28 91 c2 0 -1 -7 0 -8l8 28c-53 -86 -108 -174 -167 -257c-19 -25 -53 -80 -89 -82c-33 -2 -63 33 -79 58c0 0 -12 12 -13 17c1 -3 10 -12 10 -12l-12 21c3 -10 -5 7 -6 7c-4 7 -6 15 -7 22c-5 17 -6 35 -6 52c1 36 11 70 18 105c6 36 18 70 32 103c3 6 30 74 37 73 c0 0 -5 -13 -4 -14c6 16 14 32 22 48l-7 -9c1 16 19 37 26 51l30 59c23 40 51 77 80 113c25 31 56 64 95 78c20 7 42 3 62 -1c37 -8 75 -34 103 -58c11 -10 33 -26 32 -43c0 -14 -17 -28 -28 -35c-25 -16 -33 -7 -39 16c0 -1 3 -11 1 -12s-11 31 -12 35c-2 6 -4 13 -7 19 c3 -5 6 -8 8 -10c-4 12 -10 20 -16 24c-10 4 -22 2 -38 -4c-22 -8 -42 -22 -59 -38c-48 -43 -84 -100 -114 -157c19 35 41 68 65 100c12 16 25 31 40 45c7 7 23 16 31 24c-11 -13 -30 -25 -41 -36c-13 -14 -24 -29 -35 -44c-24 -33 -45 -68 -64 -104 c-40 -76 -72 -157 -93 -240c-10 -38 -19 -77 -24 -116c-1 -9 -8 -43 2 -49c15 -9 58 42 65 50c23 24 46 48 66 72c-4 -4 -8 -9 -10 -8c-1 0 38 57 42 62l48 68l100 149c8 12 14 25 21 38c5 11 13 17 19 24c7 7 8 20 15 28c25 31 66 10 84 -17zM106 222 c-4 -32 -9 -66 -11 -99v-4l2 18c2 33 9 66 17 99c16 65 36 132 60 195c23 59 49 116 82 170c16 28 38 59 65 82c-31 -25 -55 -61 -72 -91c-31 -53 -60 -106 -84 -163c-28 -65 -49 -137 -59 -207zM330 69c-1 -20 0 -39 2 -58c-1 11 0 22 1 33c2 19 6 37 8 56c1 16 0 33 2 48 c-3 -7 -5 -14 -7 -20c-5 -20 -6 -38 -6 -59zM181 420v2l-2 -5zM338 696c-4 -2 -8 -6 -12 -9zM434 702c0 -2 2 -5 4 -8zM441 691c0 0 -2 1 -3 3zM458 346l3 8zM532 916c2 -27 1 -55 -1 -82c-1 -15 -11 -36 -32 -28c-32 12 -33 74 -33 99c-14 -14 -27 -25 -40 -40 c-14 -16 -37 -37 -57 -44c-35 -12 11 45 19 53c30 32 69 84 113 98c12 5 19 2 25 -11c3 -9 2 -18 3 -27c0 -3 -2 -7 -1 -10c0 -3 4 -3 4 -8z"></glyph><glyph glyph-name="Atilde" unicode="Ã" d="M553 551c10 -16 0 -22 -7 -31c1 1 2 2 4 2c2 -1 -20 -36 -24 -34c-1 0 2 4 4 8c-30 -44 -51 -92 -69 -142c12 32 36 90 44 95c-7 -8 -44 -105 -47 -115c-14 -40 -25 -81 -31 -122c-7 -42 -11 -84 -16 -125c-4 -33 -12 -71 -9 -101c0 4 0 8 2 12c1 0 8 -44 14 -48 c3 -2 6 1 9 1c18 3 38 31 48 43c7 8 19 32 29 36c36 16 -7 -94 -17 -106c-16 -21 -31 -38 -60 -38c-24 0 -47 9 -65 24c-32 29 -46 74 -48 115c0 18 3 33 6 50c0 4 -2 34 1 35c0 -1 1 -2 1 -3c0 2 -1 4 0 5c-2 0 -3 18 -3 19c1 13 4 25 6 38c4 19 6 37 8 56c0 7 18 92 28 91 c2 0 -1 -7 0 -8l8 28c-53 -86 -108 -174 -167 -257c-19 -25 -53 -80 -89 -82c-33 -2 -63 33 -79 58c0 0 -12 12 -13 17c1 -3 10 -12 10 -12l-12 21c3 -10 -5 7 -6 7c-4 7 -6 15 -7 22c-5 17 -6 35 -6 52c1 36 11 70 18 105c6 36 18 70 32 103c3 6 30 74 37 73 c0 0 -5 -13 -4 -14c6 16 14 32 22 48l-7 -9c1 16 19 37 26 51l30 59c23 40 51 77 80 113c25 31 56 64 95 78c20 7 42 3 62 -1c37 -8 75 -34 103 -58c11 -10 33 -26 32 -43c0 -14 -17 -28 -28 -35c-25 -16 -33 -7 -39 16c0 -1 3 -11 1 -12s-11 31 -12 35c-2 6 -4 13 -7 19 c3 -5 6 -8 8 -10c-4 12 -10 20 -16 24c-10 4 -22 2 -38 -4c-22 -8 -42 -22 -59 -38c-48 -43 -84 -100 -114 -157c19 35 41 68 65 100c12 16 25 31 40 45c7 7 23 16 31 24c-11 -13 -30 -25 -41 -36c-13 -14 -24 -29 -35 -44c-24 -33 -45 -68 -64 -104 c-40 -76 -72 -157 -93 -240c-10 -38 -19 -77 -24 -116c-1 -9 -8 -43 2 -49c15 -9 58 42 65 50c23 24 46 48 66 72c-4 -4 -8 -9 -10 -8c-1 0 38 57 42 62l48 68l100 149c8 12 14 25 21 38c5 11 13 17 19 24c7 7 8 20 15 28c25 31 66 10 84 -17zM106 222 c-4 -32 -9 -66 -11 -99v-4l2 18c2 33 9 66 17 99c16 65 36 132 60 195c23 59 49 116 82 170c16 28 38 59 65 82c-31 -25 -55 -61 -72 -91c-31 -53 -60 -106 -84 -163c-28 -65 -49 -137 -59 -207zM330 69c-1 -20 0 -39 2 -58c-1 11 0 22 1 33c2 19 6 37 8 56c1 16 0 33 2 48 c-3 -7 -5 -14 -7 -20c-5 -20 -6 -38 -6 -59zM181 420v2l-2 -5zM338 696c-4 -2 -8 -6 -12 -9zM434 702c0 -2 2 -5 4 -8zM441 691c0 0 -2 1 -3 3zM458 346l3 8zM559 876c3 3 9 21 19 7c9 -12 -10 -25 -14 -31c-6 -8 -11 -15 -21 -21c-17 -10 -40 -12 -57 -8 c-21 6 -39 21 -60 25c-13 3 -25 6 -39 2c-11 -3 -26 -18 -37 -9c-33 24 47 63 60 67c48 19 66 -21 107 -37c14 -6 30 -5 42 5z"></glyph><glyph glyph-name="Adieresis" unicode="Ä" d="M553 551c10 -16 0 -22 -7 -31c1 1 2 2 4 2c2 -1 -20 -36 -24 -34c-1 0 2 4 4 8c-30 -44 -51 -92 -69 -142c12 32 36 90 44 95c-7 -8 -44 -105 -47 -115c-14 -40 -25 -81 -31 -122c-7 -42 -11 -84 -16 -125c-4 -33 -12 -71 -9 -101c0 4 0 8 2 12c1 0 8 -44 14 -48 c3 -2 6 1 9 1c18 3 38 31 48 43c7 8 19 32 29 36c36 16 -7 -94 -17 -106c-16 -21 -31 -38 -60 -38c-24 0 -47 9 -65 24c-32 29 -46 74 -48 115c0 18 3 33 6 50c0 4 -2 34 1 35c0 -1 1 -2 1 -3c0 2 -1 4 0 5c-2 0 -3 18 -3 19c1 13 4 25 6 38c4 19 6 37 8 56c0 7 18 92 28 91 c2 0 -1 -7 0 -8l8 28c-53 -86 -108 -174 -167 -257c-19 -25 -53 -80 -89 -82c-33 -2 -63 33 -79 58c0 0 -12 12 -13 17c1 -3 10 -12 10 -12l-12 21c3 -10 -5 7 -6 7c-4 7 -6 15 -7 22c-5 17 -6 35 -6 52c1 36 11 70 18 105c6 36 18 70 32 103c3 6 30 74 37 73 c0 0 -5 -13 -4 -14c6 16 14 32 22 48l-7 -9c1 16 19 37 26 51l30 59c23 40 51 77 80 113c25 31 56 64 95 78c20 7 42 3 62 -1c37 -8 75 -34 103 -58c11 -10 33 -26 32 -43c0 -14 -17 -28 -28 -35c-25 -16 -33 -7 -39 16c0 -1 3 -11 1 -12s-11 31 -12 35c-2 6 -4 13 -7 19 c3 -5 6 -8 8 -10c-4 12 -10 20 -16 24c-10 4 -22 2 -38 -4c-22 -8 -42 -22 -59 -38c-48 -43 -84 -100 -114 -157c19 35 41 68 65 100c12 16 25 31 40 45c7 7 23 16 31 24c-11 -13 -30 -25 -41 -36c-13 -14 -24 -29 -35 -44c-24 -33 -45 -68 -64 -104 c-40 -76 -72 -157 -93 -240c-10 -38 -19 -77 -24 -116c-1 -9 -8 -43 2 -49c15 -9 58 42 65 50c23 24 46 48 66 72c-4 -4 -8 -9 -10 -8c-1 0 38 57 42 62l48 68l100 149c8 12 14 25 21 38c5 11 13 17 19 24c7 7 8 20 15 28c25 31 66 10 84 -17zM106 222 c-4 -32 -9 -66 -11 -99v-4l2 18c2 33 9 66 17 99c16 65 36 132 60 195c23 59 49 116 82 170c16 28 38 59 65 82c-31 -25 -55 -61 -72 -91c-31 -53 -60 -106 -84 -163c-28 -65 -49 -137 -59 -207zM330 69c-1 -20 0 -39 2 -58c-1 11 0 22 1 33c2 19 6 37 8 56c1 16 0 33 2 48 c-3 -7 -5 -14 -7 -20c-5 -20 -6 -38 -6 -59zM181 420v2l-2 -5zM338 696c-4 -2 -8 -6 -12 -9zM434 702c0 -2 2 -5 4 -8zM441 691c0 0 -2 1 -3 3zM458 346l3 8zM579 894c1 -5 3 -21 1 -26h-1c-2 -14 -11 -26 -21 -36c4 3 8 6 9 6c4 -2 -33 -29 -36 -31c-8 -5 -11 -7 -20 -6 c-3 1 -22 12 -19 14c1 1 2 1 3 0c-1 1 -9 8 -8 6c10 -13 -3 0 -4 3c-3 8 -5 11 -4 21c1 16 9 28 21 39c17 16 70 46 77 5c-2 21 -22 25 -39 21c18 6 32 4 41 -16zM439 905c10 1 -5 -33 -6 -36c-6 -16 -13 -27 -29 -38c-6 -4 -18 -15 -25 -15c-12 -1 -29 16 -35 26 c-10 18 6 45 19 59c6 6 13 9 19 14c2 2 -2 6 4 9c7 4 14 0 20 0c1 0 2 4 6 4c5 0 9 -1 13 -3c10 -4 12 -9 14 -20zM514 802c2 4 -5 2 -9 5c2 -3 5 -4 8 -5h1zM519 902c-2 3 1 4 6 5c0 0 -5 -5 -6 -5zM574 860v1c0 1 0 3 1 5c-1 -5 -3 -10 -5 -14zM578 877c0 7 -2 -1 -2 -6 c0 2 1 4 2 6zM530 810c3 1 6 4 10 7zM555 829c1 0 2 1 3 2zM553 827c0 0 1 1 2 1c-1 0 -2 -1 -2 -1zM538 910c-2 0 -3 -1 -4 -1c1 0 2 1 4 1z"></glyph><glyph glyph-name="Aring" unicode="Å" d="M553 551c10 -16 0 -22 -7 -31c1 1 2 2 4 2c2 -1 -20 -36 -24 -34c-1 0 2 4 4 8c-30 -44 -51 -92 -69 -142c12 32 36 90 44 95c-7 -8 -44 -105 -47 -115c-14 -40 -25 -81 -31 -122c-7 -42 -11 -84 -16 -125c-4 -33 -12 -71 -9 -101c0 4 0 8 2 12c1 0 8 -44 14 -48 c3 -2 6 1 9 1c18 3 38 31 48 43c7 8 19 32 29 36c36 16 -7 -94 -17 -106c-16 -21 -31 -38 -60 -38c-24 0 -47 9 -65 24c-32 29 -46 74 -48 115c0 18 3 33 6 50c0 4 -2 34 1 35c0 -1 1 -2 1 -3c0 2 -1 4 0 5c-2 0 -3 18 -3 19c1 13 4 25 6 38c4 19 6 37 8 56c0 7 18 92 28 91 c2 0 -1 -7 0 -8l8 28c-53 -86 -108 -174 -167 -257c-19 -25 -53 -80 -89 -82c-33 -2 -63 33 -79 58c0 0 -12 12 -13 17c1 -3 10 -12 10 -12l-12 21c3 -10 -5 7 -6 7c-4 7 -6 15 -7 22c-5 17 -6 35 -6 52c1 36 11 70 18 105c6 36 18 70 32 103c3 6 30 74 37 73 c0 0 -5 -13 -4 -14c6 16 14 32 22 48l-7 -9c1 16 19 37 26 51l30 59c23 40 51 77 80 113c25 31 56 64 95 78c20 7 42 3 62 -1c37 -8 75 -34 103 -58c11 -10 33 -26 32 -43c0 -14 -17 -28 -28 -35c-25 -16 -33 -7 -39 16c0 -1 3 -11 1 -12s-11 31 -12 35c-2 6 -4 13 -7 19 c3 -5 6 -8 8 -10c-4 12 -10 20 -16 24c-10 4 -22 2 -38 -4c-22 -8 -42 -22 -59 -38c-48 -43 -84 -100 -114 -157c19 35 41 68 65 100c12 16 25 31 40 45c7 7 23 16 31 24c-11 -13 -30 -25 -41 -36c-13 -14 -24 -29 -35 -44c-24 -33 -45 -68 -64 -104 c-40 -76 -72 -157 -93 -240c-10 -38 -19 -77 -24 -116c-1 -9 -8 -43 2 -49c15 -9 58 42 65 50c23 24 46 48 66 72c-4 -4 -8 -9 -10 -8c-1 0 38 57 42 62l48 68l100 149c8 12 14 25 21 38c5 11 13 17 19 24c7 7 8 20 15 28c25 31 66 10 84 -17zM106 222 c-4 -32 -9 -66 -11 -99v-4l2 18c2 33 9 66 17 99c16 65 36 132 60 195c23 59 49 116 82 170c16 28 38 59 65 82c-31 -25 -55 -61 -72 -91c-31 -53 -60 -106 -84 -163c-28 -65 -49 -137 -59 -207zM330 69c-1 -20 0 -39 2 -58c-1 11 0 22 1 33c2 19 6 37 8 56c1 16 0 33 2 48 c-3 -7 -5 -14 -7 -20c-5 -20 -6 -38 -6 -59zM181 420v2l-2 -5zM338 696c-4 -2 -8 -6 -12 -9zM434 702c0 -2 2 -5 4 -8zM441 691c0 0 -2 1 -3 3zM458 346l3 8zM526 893c6 1 -2 -22 -2 -23c-5 -12 -11 -23 -21 -32c-11 -10 -26 -20 -42 -22c-45 -4 -77 24 -63 70 c4 12 18 39 27 45c7 4 13 1 19 3c4 1 1 4 5 5c7 2 13 1 20 1c31 -2 61 -12 57 -47zM505 883c4 6 -2 29 -10 33c-5 2 -3 0 -7 0c-17 -4 -20 -14 -26 -25c-4 -7 -25 -57 -7 -57c-1 12 14 3 18 5c-3 6 14 13 18 18c5 6 9 17 14 26z"></glyph><glyph glyph-name="Ccedilla" unicode="Ç" d="M94 80c0 -1 -1 -1 -1 -2v-1c-5 -31 -6 -59 -5 -89l3 -6c1 -3 2 -8 2 -13c6 -3 11 -20 16 -25c9 -9 20 -12 32 -13c9 0 18 1 26 3c61 14 111 61 151 105c39 42 74 88 104 137c4 6 12 30 23 29c12 -1 7 -36 6 -43c-13 -102 -82 -192 -158 -256c-26 -21 -60 -50 -95 -52 c-30 -2 -62 15 -86 30c-46 27 -88 69 -105 120c-13 37 -5 77 0 115c1 2 -2 21 2 26c-1 -2 -1 -19 -1 -19c1 7 1 16 3 23c-2 -2 0 14 0 15c1 9 3 17 5 26c4 19 10 37 16 56c12 38 28 75 40 114c11 35 27 68 45 101c5 9 46 91 55 89c0 0 -7 -14 -6 -15c10 17 20 35 31 52 c-4 -4 -9 -10 -9 -10c4 13 20 30 28 41c7 12 15 23 23 35c18 26 38 52 59 76c29 30 71 74 116 76c81 5 128 -81 129 -149v-1c0 -36 -9 -77 -33 -104c-22 -25 -66 -54 -100 -58c-8 -1 -22 -4 -20 8c0 1 3 4 7 7h-1c6 2 38 76 45 75l-15 -34c17 32 33 64 46 98 c7 20 21 55 12 76c-12 26 -48 6 -64 -3l-14 -8l5 2c-5 -3 -9 -6 -12 -9c5 4 11 8 17 10c13 9 44 28 60 16c12 -10 9 -25 4 -39c4 18 4 37 -14 40s-32 -12 -46 -16c-46 -30 -82 -79 -112 -124c-34 -49 -64 -102 -90 -156c-28 -57 -49 -116 -71 -176 c-21 -57 -42 -115 -53 -174v-5c0 -1 0 -1 -1 -2zM270 569c16 27 36 59 59 87c-57 -62 -105 -137 -141 -214c-30 -64 -55 -128 -76 -195c15 43 34 84 53 124c33 68 66 134 105 198zM373 679c7 7 16 17 25 25c-25 -20 -45 -45 -64 -70c12 15 25 31 39 45zM475 671 c0 -1 0 -2 -1 -4c0 7 4 16 6 25c-1 -8 -3 -15 -5 -21zM167 -191c3 -48 -45 -72 -85 -74c-12 0 -16 -1 -23 9c-7 11 -9 45 0 54c8 8 9 0 17 -1s53 0 55 8c3 17 -30 13 -37 13c-31 -1 -8 28 2 46c3 6 10 26 16 29c3 1 18 -6 19 -7c4 -8 -8 -23 -11 -28c20 6 44 -31 47 -47 l-1 1c0 -1 0 -1 1 -2v-1z"></glyph><glyph glyph-name="Egrave" unicode="È" d="M696 730c2 -19 -38 -25 -49 -28c-9 -2 -18 -1 -26 -4c-3 2 -6 2 -10 0c1 -2 0 -4 -1 -5c-17 -8 -37 -13 -56 -16c-20 -4 -40 -10 -60 -13c-8 -1 -17 -1 -25 -4c-10 -3 -8 -5 -15 -7c-18 -7 -37 -7 -55 -9c-10 -2 -21 -5 -31 -8l-18 -3c0 -3 -2 -6 -4 -8c0 3 0 5 2 8 c-6 -1 -17 -41 -19 -47l-21 -53c-10 -26 -20 -51 -29 -77c12 33 28 74 37 95c-21 -51 -76 -206 -82 -223c44 5 88 8 131 13c23 3 45 6 68 7h13c3 1 6 6 8 5c12 -4 9 -13 1 -20c-13 -11 -34 -7 -49 -11c-8 -2 -4 -4 -13 -8c-9 -6 -25 -7 -35 -9c-19 -2 -37 -6 -56 -9 c-14 -2 -21 -10 -38 -12c-13 -2 -38 0 -49 -8c-6 -5 -11 -32 -14 -40l-12 -37c-15 -49 -32 -96 -49 -144c-10 -26 -19 -52 -28 -78c-6 -18 -15 -34 -16 -52c0 -3 4 19 7 16s-1 -15 0 -19c44 8 90 38 129 59c38 20 75 43 113 63c18 9 28 5 20 -16c-7 -19 -26 -38 -41 -52 c-22 -20 -43 -40 -67 -59c-48 -36 -118 -89 -181 -63c-39 16 -80 53 -76 99c2 19 13 32 22 48c2 5 11 45 16 46c0 0 -3 -10 -4 -13l5 15c-1 1 3 16 3 18l11 28c7 18 15 35 21 53c14 35 21 71 36 106c-27 0 -70 37 -33 54c1 0 2 0 2 1c13 4 30 3 43 4c6 1 12 4 17 5 c1 0 2 8 4 7c0 0 -2 -8 -3 -9c5 1 12 28 15 38c-1 -3 -3 -6 -5 -9c1 0 81 242 88 264c-32 -5 -92 1 -86 47c1 11 6 17 18 21c27 10 84 -4 100 20c13 18 2 42 26 50c17 6 40 -4 54 -14c8 -6 12 -13 19 -20c2 -3 3 -6 3 -10l19 3c46 5 92 8 138 14c43 5 87 12 131 13 c5 0 12 0 16 1c3 0 7 4 8 4c5 0 11 0 12 -8zM185 374c16 37 25 81 37 118c-10 -26 -22 -51 -30 -77l-47 -129c13 30 27 57 40 88zM234 336l9 24l-13 -32c3 0 5 3 4 8zM322 564c0 -1 -1 -2 -1 -3c0 0 1 2 1 3zM322 564c1 1 1 2 2 2c-1 0 -1 -1 -2 -2zM319 558l-3 -7zM451 791 c5 -34 -40 6 -48 13c-20 17 -37 42 -59 57c-10 6 -18 6 -10 23c2 3 6 3 7 4c2 3 -2 4 1 7c6 7 17 12 26 13c19 1 26 -3 35 -19c7 -14 17 -24 23 -38c6 -12 10 -25 14 -37c4 -8 9 -12 11 -22v-1z"></glyph><glyph glyph-name="Eacute" unicode="É" d="M696 730c2 -19 -38 -25 -49 -28c-9 -2 -18 -1 -26 -4c-3 2 -6 2 -10 0c1 -2 0 -4 -1 -5c-17 -8 -37 -13 -56 -16c-20 -4 -40 -10 -60 -13c-8 -1 -17 -1 -25 -4c-10 -3 -8 -5 -15 -7c-18 -7 -37 -7 -55 -9c-10 -2 -21 -5 -31 -8l-18 -3c0 -3 -2 -6 -4 -8c0 3 0 5 2 8 c-6 -1 -17 -41 -19 -47l-21 -53c-10 -26 -20 -51 -29 -77c12 33 28 74 37 95c-21 -51 -76 -206 -82 -223c44 5 88 8 131 13c23 3 45 6 68 7h13c3 1 6 6 8 5c12 -4 9 -13 1 -20c-13 -11 -34 -7 -49 -11c-8 -2 -4 -4 -13 -8c-9 -6 -25 -7 -35 -9c-19 -2 -37 -6 -56 -9 c-14 -2 -21 -10 -38 -12c-13 -2 -38 0 -49 -8c-6 -5 -11 -32 -14 -40l-12 -37c-15 -49 -32 -96 -49 -144c-10 -26 -19 -52 -28 -78c-6 -18 -15 -34 -16 -52c0 -3 4 19 7 16s-1 -15 0 -19c44 8 90 38 129 59c38 20 75 43 113 63c18 9 28 5 20 -16c-7 -19 -26 -38 -41 -52 c-22 -20 -43 -40 -67 -59c-48 -36 -118 -89 -181 -63c-39 16 -80 53 -76 99c2 19 13 32 22 48c2 5 11 45 16 46c0 0 -3 -10 -4 -13l5 15c-1 1 3 16 3 18l11 28c7 18 15 35 21 53c14 35 21 71 36 106c-27 0 -70 37 -33 54c1 0 2 0 2 1c13 4 30 3 43 4c6 1 12 4 17 5 c1 0 2 8 4 7c0 0 -2 -8 -3 -9c5 1 12 28 15 38c-1 -3 -3 -6 -5 -9c1 0 81 242 88 264c-32 -5 -92 1 -86 47c1 11 6 17 18 21c27 10 84 -4 100 20c13 18 2 42 26 50c17 6 40 -4 54 -14c8 -6 12 -13 19 -20c2 -3 3 -6 3 -10l19 3c46 5 92 8 138 14c43 5 87 12 131 13 c5 0 12 0 16 1c3 0 7 4 8 4c5 0 11 0 12 -8zM185 374c16 37 25 81 37 118c-10 -26 -22 -51 -30 -77l-47 -129c13 30 27 57 40 88zM234 336l9 24l-13 -32c3 0 5 3 4 8zM322 564c0 -1 -1 -2 -1 -3c0 0 1 2 1 3zM322 564c1 1 1 2 2 2c-1 0 -1 -1 -2 -2zM319 558l-3 -7zM517 869 c6 -3 -31 -36 -34 -39c-15 -17 -37 -33 -54 -46c-4 -3 -19 -14 -25 -9c-10 7 10 47 15 56l37 64c3 6 -2 11 10 12c5 1 17 -2 18 -2c10 -3 21 -7 28 -18c2 -3 4 -16 5 -18z"></glyph><glyph glyph-name="Ecircumflex" unicode="Ê" d="M696 730c2 -19 -38 -25 -49 -28c-9 -2 -18 -1 -26 -4c-3 2 -6 2 -10 0c1 -2 0 -4 -1 -5c-17 -8 -37 -13 -56 -16c-20 -4 -40 -10 -60 -13c-8 -1 -17 -1 -25 -4c-10 -3 -8 -5 -15 -7c-18 -7 -37 -7 -55 -9c-10 -2 -21 -5 -31 -8l-18 -3c0 -3 -2 -6 -4 -8c0 3 0 5 2 8 c-6 -1 -17 -41 -19 -47l-21 -53c-10 -26 -20 -51 -29 -77c12 33 28 74 37 95c-21 -51 -76 -206 -82 -223c44 5 88 8 131 13c23 3 45 6 68 7h13c3 1 6 6 8 5c12 -4 9 -13 1 -20c-13 -11 -34 -7 -49 -11c-8 -2 -4 -4 -13 -8c-9 -6 -25 -7 -35 -9c-19 -2 -37 -6 -56 -9 c-14 -2 -21 -10 -38 -12c-13 -2 -38 0 -49 -8c-6 -5 -11 -32 -14 -40l-12 -37c-15 -49 -32 -96 -49 -144c-10 -26 -19 -52 -28 -78c-6 -18 -15 -34 -16 -52c0 -3 4 19 7 16s-1 -15 0 -19c44 8 90 38 129 59c38 20 75 43 113 63c18 9 28 5 20 -16c-7 -19 -26 -38 -41 -52 c-22 -20 -43 -40 -67 -59c-48 -36 -118 -89 -181 -63c-39 16 -80 53 -76 99c2 19 13 32 22 48c2 5 11 45 16 46c0 0 -3 -10 -4 -13l5 15c-1 1 3 16 3 18l11 28c7 18 15 35 21 53c14 35 21 71 36 106c-27 0 -70 37 -33 54c1 0 2 0 2 1c13 4 30 3 43 4c6 1 12 4 17 5 c1 0 2 8 4 7c0 0 -2 -8 -3 -9c5 1 12 28 15 38c-1 -3 -3 -6 -5 -9c1 0 81 242 88 264c-32 -5 -92 1 -86 47c1 11 6 17 18 21c27 10 84 -4 100 20c13 18 2 42 26 50c17 6 40 -4 54 -14c8 -6 12 -13 19 -20c2 -3 3 -6 3 -10l19 3c46 5 92 8 138 14c43 5 87 12 131 13 c5 0 12 0 16 1c3 0 7 4 8 4c5 0 11 0 12 -8zM185 374c16 37 25 81 37 118c-10 -26 -22 -51 -30 -77l-47 -129c13 30 27 57 40 88zM234 336l9 24l-13 -32c3 0 5 3 4 8zM322 564c0 -1 -1 -2 -1 -3c0 0 1 2 1 3zM322 564c1 1 1 2 2 2c-1 0 -1 -1 -2 -2zM319 558l-3 -7zM498 901 c2 -27 1 -55 -1 -82c-1 -15 -11 -36 -32 -28c-32 12 -33 74 -33 99c-14 -14 -27 -25 -40 -40c-14 -16 -37 -37 -57 -44c-35 -12 11 45 19 53c30 32 69 84 113 98c12 5 19 2 25 -11c3 -9 2 -18 3 -27c0 -3 -2 -7 -1 -10c0 -3 4 -3 4 -8z"></glyph><glyph glyph-name="Edieresis" unicode="Ë" d="M696 730c2 -19 -38 -25 -49 -28c-9 -2 -18 -1 -26 -4c-3 2 -6 2 -10 0c1 -2 0 -4 -1 -5c-17 -8 -37 -13 -56 -16c-20 -4 -40 -10 -60 -13c-8 -1 -17 -1 -25 -4c-10 -3 -8 -5 -15 -7c-18 -7 -37 -7 -55 -9c-10 -2 -21 -5 -31 -8l-18 -3c0 -3 -2 -6 -4 -8c0 3 0 5 2 8 c-6 -1 -17 -41 -19 -47l-21 -53c-10 -26 -20 -51 -29 -77c12 33 28 74 37 95c-21 -51 -76 -206 -82 -223c44 5 88 8 131 13c23 3 45 6 68 7h13c3 1 6 6 8 5c12 -4 9 -13 1 -20c-13 -11 -34 -7 -49 -11c-8 -2 -4 -4 -13 -8c-9 -6 -25 -7 -35 -9c-19 -2 -37 -6 -56 -9 c-14 -2 -21 -10 -38 -12c-13 -2 -38 0 -49 -8c-6 -5 -11 -32 -14 -40l-12 -37c-15 -49 -32 -96 -49 -144c-10 -26 -19 -52 -28 -78c-6 -18 -15 -34 -16 -52c0 -3 4 19 7 16s-1 -15 0 -19c44 8 90 38 129 59c38 20 75 43 113 63c18 9 28 5 20 -16c-7 -19 -26 -38 -41 -52 c-22 -20 -43 -40 -67 -59c-48 -36 -118 -89 -181 -63c-39 16 -80 53 -76 99c2 19 13 32 22 48c2 5 11 45 16 46c0 0 -3 -10 -4 -13l5 15c-1 1 3 16 3 18l11 28c7 18 15 35 21 53c14 35 21 71 36 106c-27 0 -70 37 -33 54c1 0 2 0 2 1c13 4 30 3 43 4c6 1 12 4 17 5 c1 0 2 8 4 7c0 0 -2 -8 -3 -9c5 1 12 28 15 38c-1 -3 -3 -6 -5 -9c1 0 81 242 88 264c-32 -5 -92 1 -86 47c1 11 6 17 18 21c27 10 84 -4 100 20c13 18 2 42 26 50c17 6 40 -4 54 -14c8 -6 12 -13 19 -20c2 -3 3 -6 3 -10l19 3c46 5 92 8 138 14c43 5 87 12 131 13 c5 0 12 0 16 1c3 0 7 4 8 4c5 0 11 0 12 -8zM185 374c16 37 25 81 37 118c-10 -26 -22 -51 -30 -77l-47 -129c13 30 27 57 40 88zM234 336l9 24l-13 -32c3 0 5 3 4 8zM322 564c0 -1 -1 -2 -1 -3c0 0 1 2 1 3zM322 564c1 1 1 2 2 2c-1 0 -1 -1 -2 -2zM319 558l-3 -7zM577 881 c1 -5 3 -21 1 -26h-1c-2 -14 -11 -26 -21 -36c4 3 8 6 9 6c4 -2 -33 -29 -36 -31c-8 -5 -11 -7 -20 -6c-3 1 -22 12 -19 14c1 1 2 1 3 0c-1 1 -9 8 -8 6c10 -13 -3 0 -4 3c-3 8 -5 11 -4 21c1 16 9 28 21 39c17 16 70 46 77 5c-2 21 -22 25 -39 21c18 6 32 4 41 -16z M437 892c10 1 -5 -33 -6 -36c-6 -16 -13 -27 -29 -38c-6 -4 -18 -15 -25 -15c-12 -1 -29 16 -35 26c-10 18 6 45 19 59c6 6 13 9 19 14c2 2 -2 6 4 9c7 4 14 0 20 0c1 0 2 4 6 4c5 0 9 -1 13 -3c10 -4 12 -9 14 -20zM512 789c2 4 -5 2 -9 5c2 -3 5 -4 8 -5h1zM517 889 c-2 3 1 4 6 5c0 0 -5 -5 -6 -5zM572 847v1c0 1 0 3 1 5c-1 -5 -3 -10 -5 -14zM576 864c0 7 -2 -1 -2 -6c0 2 1 4 2 6zM528 797c3 1 6 4 10 7zM553 816c1 0 2 1 3 2zM551 814c0 0 1 1 2 1c-1 0 -2 -1 -2 -1zM536 897c-2 0 -3 -1 -4 -1c1 0 2 1 4 1z"></glyph><glyph glyph-name="Igrave" unicode="Ì" d="M644 696c3 -19 -38 -22 -49 -23c-16 -1 -20 -9 -39 -13c-18 -4 -36 -8 -54 -11c-4 -1 -17 0 -20 -2c-7 -6 0 -8 -1 -14c-6 -22 -21 -45 -31 -65c-19 -36 -36 -72 -54 -109c-17 -33 -26 -68 -43 -102c-19 -38 -35 -77 -51 -116c-13 -30 -19 -61 -31 -92 c-19 -46 -35 -94 -49 -142c47 5 95 9 142 6c5 0 14 -2 19 -1c4 0 3 6 7 5c5 -1 8 -4 8 -10c0 -16 -35 -20 -46 -20c-8 -1 -13 -1 -18 -3c-5 -3 -11 -8 -19 -10l-52 -11c-28 -6 -50 -13 -79 -17c-16 -2 -32 -6 -48 -8c-10 -2 -17 -7 -26 -10c-25 -8 -69 -17 -93 -3 c-18 11 -25 36 -4 47c11 6 28 5 40 8c33 6 66 8 97 18c-20 44 5 92 20 134c9 26 20 51 32 76c11 25 17 51 26 76c21 58 49 114 74 170c26 57 50 114 77 170c-10 -2 -16 -6 -26 -10c-14 -6 -39 -8 -55 -9c-22 -1 -63 12 -51 42c3 7 6 9 13 12c12 6 30 6 43 8c19 4 37 9 56 10 c14 1 24 4 38 8s13 4 21 14c4 4 8 11 10 16c0 0 -3 3 0 7c5 6 10 7 18 8c17 2 37 -8 49 -19c8 -7 8 -11 19 -13c5 -1 15 1 21 1c25 2 50 3 75 1c4 0 15 -2 19 -1c4 0 2 6 6 5c5 -1 8 -2 9 -7v-1zM390 508c9 16 14 32 20 49c-7 -11 -20 -22 -24 -33c-5 -13 -4 -26 -7 -39 c3 8 7 15 11 23zM349 452c5 9 6 19 10 28c-4 -5 -8 -10 -10 -14c-6 -12 -9 -24 -14 -36zM505 800c5 -34 -40 6 -48 13c-20 17 -37 42 -59 57c-10 6 -18 6 -10 23c2 3 6 3 7 4c2 3 -2 4 1 7c6 7 17 12 26 13c19 1 26 -3 35 -19c7 -14 17 -24 23 -38c6 -12 10 -25 14 -37 c4 -8 9 -12 11 -22v-1z"></glyph><glyph glyph-name="Iacute" unicode="Í" d="M644 696c3 -19 -38 -22 -49 -23c-16 -1 -20 -9 -39 -13c-18 -4 -36 -8 -54 -11c-4 -1 -17 0 -20 -2c-7 -6 0 -8 -1 -14c-6 -22 -21 -45 -31 -65c-19 -36 -36 -72 -54 -109c-17 -33 -26 -68 -43 -102c-19 -38 -35 -77 -51 -116c-13 -30 -19 -61 -31 -92 c-19 -46 -35 -94 -49 -142c47 5 95 9 142 6c5 0 14 -2 19 -1c4 0 3 6 7 5c5 -1 8 -4 8 -10c0 -16 -35 -20 -46 -20c-8 -1 -13 -1 -18 -3c-5 -3 -11 -8 -19 -10l-52 -11c-28 -6 -50 -13 -79 -17c-16 -2 -32 -6 -48 -8c-10 -2 -17 -7 -26 -10c-25 -8 -69 -17 -93 -3 c-18 11 -25 36 -4 47c11 6 28 5 40 8c33 6 66 8 97 18c-20 44 5 92 20 134c9 26 20 51 32 76c11 25 17 51 26 76c21 58 49 114 74 170c26 57 50 114 77 170c-10 -2 -16 -6 -26 -10c-14 -6 -39 -8 -55 -9c-22 -1 -63 12 -51 42c3 7 6 9 13 12c12 6 30 6 43 8c19 4 37 9 56 10 c14 1 24 4 38 8s13 4 21 14c4 4 8 11 10 16c0 0 -3 3 0 7c5 6 10 7 18 8c17 2 37 -8 49 -19c8 -7 8 -11 19 -13c5 -1 15 1 21 1c25 2 50 3 75 1c4 0 15 -2 19 -1c4 0 2 6 6 5c5 -1 8 -2 9 -7v-1zM390 508c9 16 14 32 20 49c-7 -11 -20 -22 -24 -33c-5 -13 -4 -26 -7 -39 c3 8 7 15 11 23zM349 452c5 9 6 19 10 28c-4 -5 -8 -10 -10 -14c-6 -12 -9 -24 -14 -36zM553 885c6 -3 -31 -36 -34 -39c-15 -17 -37 -33 -54 -46c-4 -3 -19 -14 -25 -9c-10 7 10 47 15 56l37 64c3 6 -2 11 10 12c5 1 17 -2 18 -2c10 -3 21 -7 28 -18c2 -3 4 -16 5 -18z"></glyph><glyph glyph-name="Icircumflex" unicode="Î" d="M644 696c3 -19 -38 -22 -49 -23c-16 -1 -20 -9 -39 -13c-18 -4 -36 -8 -54 -11c-4 -1 -17 0 -20 -2c-7 -6 0 -8 -1 -14c-6 -22 -21 -45 -31 -65c-19 -36 -36 -72 -54 -109c-17 -33 -26 -68 -43 -102c-19 -38 -35 -77 -51 -116c-13 -30 -19 -61 -31 -92 c-19 -46 -35 -94 -49 -142c47 5 95 9 142 6c5 0 14 -2 19 -1c4 0 3 6 7 5c5 -1 8 -4 8 -10c0 -16 -35 -20 -46 -20c-8 -1 -13 -1 -18 -3c-5 -3 -11 -8 -19 -10l-52 -11c-28 -6 -50 -13 -79 -17c-16 -2 -32 -6 -48 -8c-10 -2 -17 -7 -26 -10c-25 -8 -69 -17 -93 -3 c-18 11 -25 36 -4 47c11 6 28 5 40 8c33 6 66 8 97 18c-20 44 5 92 20 134c9 26 20 51 32 76c11 25 17 51 26 76c21 58 49 114 74 170c26 57 50 114 77 170c-10 -2 -16 -6 -26 -10c-14 -6 -39 -8 -55 -9c-22 -1 -63 12 -51 42c3 7 6 9 13 12c12 6 30 6 43 8c19 4 37 9 56 10 c14 1 24 4 38 8s13 4 21 14c4 4 8 11 10 16c0 0 -3 3 0 7c5 6 10 7 18 8c17 2 37 -8 49 -19c8 -7 8 -11 19 -13c5 -1 15 1 21 1c25 2 50 3 75 1c4 0 15 -2 19 -1c4 0 2 6 6 5c5 -1 8 -2 9 -7v-1zM390 508c9 16 14 32 20 49c-7 -11 -20 -22 -24 -33c-5 -13 -4 -26 -7 -39 c3 8 7 15 11 23zM349 452c5 9 6 19 10 28c-4 -5 -8 -10 -10 -14c-6 -12 -9 -24 -14 -36zM575 886c2 -27 1 -55 -1 -82c-1 -15 -11 -36 -32 -28c-32 12 -33 74 -33 99c-14 -14 -27 -25 -40 -40c-14 -16 -37 -37 -57 -44c-35 -12 11 45 19 53c30 32 69 84 113 98 c12 5 19 2 25 -11c3 -9 2 -18 3 -27c0 -3 -2 -7 -1 -10c0 -3 4 -3 4 -8z"></glyph><glyph glyph-name="Idieresis" unicode="Ï" d="M644 696c3 -19 -38 -22 -49 -23c-16 -1 -20 -9 -39 -13c-18 -4 -36 -8 -54 -11c-4 -1 -17 0 -20 -2c-7 -6 0 -8 -1 -14c-6 -22 -21 -45 -31 -65c-19 -36 -36 -72 -54 -109c-17 -33 -26 -68 -43 -102c-19 -38 -35 -77 -51 -116c-13 -30 -19 -61 -31 -92 c-19 -46 -35 -94 -49 -142c47 5 95 9 142 6c5 0 14 -2 19 -1c4 0 3 6 7 5c5 -1 8 -4 8 -10c0 -16 -35 -20 -46 -20c-8 -1 -13 -1 -18 -3c-5 -3 -11 -8 -19 -10l-52 -11c-28 -6 -50 -13 -79 -17c-16 -2 -32 -6 -48 -8c-10 -2 -17 -7 -26 -10c-25 -8 -69 -17 -93 -3 c-18 11 -25 36 -4 47c11 6 28 5 40 8c33 6 66 8 97 18c-20 44 5 92 20 134c9 26 20 51 32 76c11 25 17 51 26 76c21 58 49 114 74 170c26 57 50 114 77 170c-10 -2 -16 -6 -26 -10c-14 -6 -39 -8 -55 -9c-22 -1 -63 12 -51 42c3 7 6 9 13 12c12 6 30 6 43 8c19 4 37 9 56 10 c14 1 24 4 38 8s13 4 21 14c4 4 8 11 10 16c0 0 -3 3 0 7c5 6 10 7 18 8c17 2 37 -8 49 -19c8 -7 8 -11 19 -13c5 -1 15 1 21 1c25 2 50 3 75 1c4 0 15 -2 19 -1c4 0 2 6 6 5c5 -1 8 -2 9 -7v-1zM390 508c9 16 14 32 20 49c-7 -11 -20 -22 -24 -33c-5 -13 -4 -26 -7 -39 c3 8 7 15 11 23zM349 452c5 9 6 19 10 28c-4 -5 -8 -10 -10 -14c-6 -12 -9 -24 -14 -36zM606 861c1 -5 3 -21 1 -26h-1c-2 -14 -11 -26 -21 -36c4 3 8 6 9 6c4 -2 -33 -29 -36 -31c-8 -5 -11 -7 -20 -6c-3 1 -22 12 -19 14c1 1 2 1 3 0c-1 1 -9 8 -8 6c10 -13 -3 0 -4 3 c-3 8 -5 11 -4 21c1 16 9 28 21 39c17 16 70 46 77 5c-2 21 -22 25 -39 21c18 6 32 4 41 -16zM466 872c10 1 -5 -33 -6 -36c-6 -16 -13 -27 -29 -38c-6 -4 -18 -15 -25 -15c-12 -1 -29 16 -35 26c-10 18 6 45 19 59c6 6 13 9 19 14c2 2 -2 6 4 9c7 4 14 0 20 0c1 0 2 4 6 4 c5 0 9 -1 13 -3c10 -4 12 -9 14 -20zM541 769c2 4 -5 2 -9 5c2 -3 5 -4 8 -5h1zM546 869c-2 3 1 4 6 5c0 0 -5 -5 -6 -5zM601 827v1c0 1 0 3 1 5c-1 -5 -3 -10 -5 -14zM605 844c0 7 -2 -1 -2 -6c0 2 1 4 2 6zM557 777c3 1 6 4 10 7zM582 796c1 0 2 1 3 2zM580 794 c0 0 1 1 2 1c-1 0 -2 -1 -2 -1zM565 877c-2 0 -3 -1 -4 -1c1 0 2 1 4 1z"></glyph><glyph glyph-name="Ntilde" unicode="Ñ" d="M186 238c28 43 56 87 86 130l-26 -36l-36 -49c66 100 136 198 216 287c46 50 163 173 208 52v-2c1 -3 1 -4 2 -5c30 -97 -48 -200 -90 -282c3 4 5 7 7 7c-1 0 -28 -65 -31 -72c-11 -24 -22 -50 -34 -75c-27 -59 -54 -118 -78 -179c-18 -45 -43 -99 -43 -150 c1 -45 52 -44 86 -41c15 2 28 7 42 11c9 3 28 15 37 14c21 -2 -14 -41 -19 -47c-29 -29 -79 -55 -121 -41c-43 14 -71 64 -85 104c-18 49 -19 102 -8 153c11 45 33 85 51 127c0 1 3 19 8 24c-1 -3 -5 -18 -5 -18l10 25c-1 -1 -1 -1 -2 0c-1 13 14 37 19 49l27 54 c17 34 34 67 48 102s31 68 48 102c5 8 38 85 44 85c0 0 -5 -15 -4 -16c6 17 21 45 16 63c0 -1 -1 -18 -3 -18c-1 1 2 19 -6 22c-5 1 -13 -5 -16 -7c-26 -14 -46 -39 -65 -61c-45 -50 -88 -103 -127 -158c-20 -28 -40 -57 -61 -84c-7 -10 -16 -16 -23 -22 c-9 -9 -13 -24 -20 -34c-36 -60 -76 -117 -111 -178c-15 -24 -25 -47 -36 -74c-6 -15 -8 -39 -21 -50c-31 -30 -68 9 -70 42c-2 44 19 94 34 135c18 52 47 100 64 152c38 118 104 227 135 347c4 15 18 55 3 67c-12 9 -35 -3 -45 -9c-40 -24 -67 -69 -88 -108 c-11 -19 -20 -39 -27 -59c-4 -9 -9 -20 -10 -30c0 -2 5 -9 1 -17c-6 -10 -16 -12 -27 -6c-20 11 -22 44 -21 64c0 26 8 50 21 73c4 7 10 12 14 20c4 9 4 18 11 28c29 42 73 75 121 90c29 9 60 12 85 -8c22 -18 25 -43 32 -68c15 -49 -6 -97 -19 -146 c-14 -51 -38 -99 -52 -150c-10 -37 -23 -73 -38 -109l5 8c-6 -9 -10 -18 -13 -28zM518 458l-76 -155c22 43 49 82 72 125c28 52 52 109 65 168c-1 -2 -1 -3 0 2v2c-5 -23 -20 -56 -22 -61zM114 283l4 12c-17 -45 -42 -91 -62 -136c-13 -31 -24 -62 -33 -94 c-4 -14 -7 -29 -9 -44c-1 -7 2 -22 1 -28c4 10 2 24 4 36c2 13 6 27 10 40c9 29 19 58 32 86c19 41 40 84 53 127v1zM125 310c5 5 5 8 2 9c-4 -5 -4 -8 -2 -9zM426 565c-12 -12 -23 -25 -34 -39c11 13 22 26 34 39zM206 276c-2 -2 -3 -4 -4 -6zM371 500c-1 -1 -1 -1 -1 -2 l4 6zM579 600c0 1 1 3 1 4c0 -1 -1 -2 -1 -4zM386 518l6 8zM636 615l-1 3c0 -1 0 -2 1 -3zM125 310c0 1 1 1 1 1zM371 500c0 -1 -1 -1 -1 -1c1 0 1 1 1 1zM202 270l-3 -4zM585 800c3 3 9 21 19 7c9 -12 -10 -25 -14 -31c-6 -8 -11 -15 -21 -21c-17 -10 -40 -12 -57 -8 c-21 6 -39 21 -60 25c-13 3 -25 6 -39 2c-11 -3 -26 -18 -37 -9c-33 24 47 63 60 67c48 19 66 -21 107 -37c14 -6 30 -5 42 5z"></glyph><glyph glyph-name="Ograve" unicode="Ò" d="M453 446c8 41 60 -9 69 -26c23 -45 8 -99 -3 -144c-15 -63 -43 -122 -74 -178c-52 -95 -136 -226 -254 -238c-72 -7 -128 51 -160 109c-1 2 -14 18 -15 26c1 -5 8 -14 10 -18c-5 10 -8 19 -11 27v-2s-14 44 -14 49c-2 20 0 40 2 60c6 47 21 91 32 136c11 46 30 88 51 129 c9 18 18 36 29 53c2 5 24 45 29 44l-6 -11l28 45l-2 -2c4 6 9 17 12 21l21 30c15 20 29 40 44 59c34 43 73 83 120 110c31 18 68 35 103 20c37 -17 83 -60 87 -102c2 -23 -13 -56 -25 -74c-29 -45 -70 -86 -112 -118c-21 -17 -50 -42 -79 -37c-12 1 -41 13 -30 29 c0 1 3 2 7 4h-1c2 1 39 26 41 28c3 3 36 34 39 33c0 0 -28 -29 -30 -32c34 29 62 65 84 105c12 23 31 58 25 86c-6 29 -37 18 -56 7c-41 -25 -74 -68 -101 -106c26 36 58 77 97 101c-21 -15 -42 -39 -54 -52c-72 -82 -126 -183 -171 -282c-43 -95 -85 -205 -93 -309 c-3 -38 1 -89 49 -93c18 -1 37 4 53 10c10 4 19 8 27 13c0 0 21 12 16 7c10 7 19 15 28 23c-2 -1 -25 -17 -25 -16c1 9 27 27 33 33c11 11 22 23 32 36c22 29 41 60 58 92c35 64 62 133 79 204c7 29 14 60 13 91c0 6 -3 14 -2 20zM57 249c24 70 61 137 99 200 c37 60 74 122 121 175c12 13 26 29 41 43c-14 -12 -26 -26 -38 -38c-49 -55 -92 -115 -132 -177c-40 -63 -74 -134 -97 -205c-15 -45 -29 -93 -35 -141c7 48 25 98 41 143zM450 682c-5 0 -9 0 -13 -1c25 8 32 -7 30 -27c1 14 -3 26 -17 28zM456 613c4 11 9 25 11 38 c-1 -14 -6 -27 -11 -38zM244 458c-1 -1 -2 -2 -2 -3c0 0 0 1 1 2l-22 -38l20 33l4 7l-1 -1l-1 -1zM453 604c-2 -6 -4 -9 -5 -10zM246 461l5 10l-7 -12l1 1zM422 676c-2 -2 -3 -2 -4 -2zM218 412l-3 -4zM500 809c5 -34 -40 6 -48 13c-20 17 -37 42 -59 57c-10 6 -18 6 -10 23 c2 3 6 3 7 4c2 3 -2 4 1 7c6 7 17 12 26 13c19 1 26 -3 35 -19c7 -14 17 -24 23 -38c6 -12 10 -25 14 -37c4 -8 9 -12 11 -22v-1z"></glyph><glyph glyph-name="Oacute" unicode="Ó" d="M453 446c8 41 60 -9 69 -26c23 -45 8 -99 -3 -144c-15 -63 -43 -122 -74 -178c-52 -95 -136 -226 -254 -238c-72 -7 -128 51 -160 109c-1 2 -14 18 -15 26c1 -5 8 -14 10 -18c-5 10 -8 19 -11 27v-2s-14 44 -14 49c-2 20 0 40 2 60c6 47 21 91 32 136c11 46 30 88 51 129 c9 18 18 36 29 53c2 5 24 45 29 44l-6 -11l28 45l-2 -2c4 6 9 17 12 21l21 30c15 20 29 40 44 59c34 43 73 83 120 110c31 18 68 35 103 20c37 -17 83 -60 87 -102c2 -23 -13 -56 -25 -74c-29 -45 -70 -86 -112 -118c-21 -17 -50 -42 -79 -37c-12 1 -41 13 -30 29 c0 1 3 2 7 4h-1c2 1 39 26 41 28c3 3 36 34 39 33c0 0 -28 -29 -30 -32c34 29 62 65 84 105c12 23 31 58 25 86c-6 29 -37 18 -56 7c-41 -25 -74 -68 -101 -106c26 36 58 77 97 101c-21 -15 -42 -39 -54 -52c-72 -82 -126 -183 -171 -282c-43 -95 -85 -205 -93 -309 c-3 -38 1 -89 49 -93c18 -1 37 4 53 10c10 4 19 8 27 13c0 0 21 12 16 7c10 7 19 15 28 23c-2 -1 -25 -17 -25 -16c1 9 27 27 33 33c11 11 22 23 32 36c22 29 41 60 58 92c35 64 62 133 79 204c7 29 14 60 13 91c0 6 -3 14 -2 20zM57 249c24 70 61 137 99 200 c37 60 74 122 121 175c12 13 26 29 41 43c-14 -12 -26 -26 -38 -38c-49 -55 -92 -115 -132 -177c-40 -63 -74 -134 -97 -205c-15 -45 -29 -93 -35 -141c7 48 25 98 41 143zM450 682c-5 0 -9 0 -13 -1c25 8 32 -7 30 -27c1 14 -3 26 -17 28zM456 613c4 11 9 25 11 38 c-1 -14 -6 -27 -11 -38zM244 458c-1 -1 -2 -2 -2 -3c0 0 0 1 1 2l-22 -38l20 33l4 7l-1 -1l-1 -1zM453 604c-2 -6 -4 -9 -5 -10zM246 461l5 10l-7 -12l1 1zM422 676c-2 -2 -3 -2 -4 -2zM218 412l-3 -4zM543 896c6 -3 -31 -36 -34 -39c-15 -17 -37 -33 -54 -46 c-4 -3 -19 -14 -25 -9c-10 7 10 47 15 56l37 64c3 6 -2 11 10 12c5 1 17 -2 18 -2c10 -3 21 -7 28 -18c2 -3 4 -16 5 -18z"></glyph><glyph glyph-name="Ocircumflex" unicode="Ô" d="M453 446c8 41 60 -9 69 -26c23 -45 8 -99 -3 -144c-15 -63 -43 -122 -74 -178c-52 -95 -136 -226 -254 -238c-72 -7 -128 51 -160 109c-1 2 -14 18 -15 26c1 -5 8 -14 10 -18c-5 10 -8 19 -11 27v-2s-14 44 -14 49c-2 20 0 40 2 60c6 47 21 91 32 136c11 46 30 88 51 129 c9 18 18 36 29 53c2 5 24 45 29 44l-6 -11l28 45l-2 -2c4 6 9 17 12 21l21 30c15 20 29 40 44 59c34 43 73 83 120 110c31 18 68 35 103 20c37 -17 83 -60 87 -102c2 -23 -13 -56 -25 -74c-29 -45 -70 -86 -112 -118c-21 -17 -50 -42 -79 -37c-12 1 -41 13 -30 29 c0 1 3 2 7 4h-1c2 1 39 26 41 28c3 3 36 34 39 33c0 0 -28 -29 -30 -32c34 29 62 65 84 105c12 23 31 58 25 86c-6 29 -37 18 -56 7c-41 -25 -74 -68 -101 -106c26 36 58 77 97 101c-21 -15 -42 -39 -54 -52c-72 -82 -126 -183 -171 -282c-43 -95 -85 -205 -93 -309 c-3 -38 1 -89 49 -93c18 -1 37 4 53 10c10 4 19 8 27 13c0 0 21 12 16 7c10 7 19 15 28 23c-2 -1 -25 -17 -25 -16c1 9 27 27 33 33c11 11 22 23 32 36c22 29 41 60 58 92c35 64 62 133 79 204c7 29 14 60 13 91c0 6 -3 14 -2 20zM57 249c24 70 61 137 99 200 c37 60 74 122 121 175c12 13 26 29 41 43c-14 -12 -26 -26 -38 -38c-49 -55 -92 -115 -132 -177c-40 -63 -74 -134 -97 -205c-15 -45 -29 -93 -35 -141c7 48 25 98 41 143zM450 682c-5 0 -9 0 -13 -1c25 8 32 -7 30 -27c1 14 -3 26 -17 28zM456 613c4 11 9 25 11 38 c-1 -14 -6 -27 -11 -38zM244 458c-1 -1 -2 -2 -2 -3c0 0 0 1 1 2l-22 -38l20 33l4 7l-1 -1l-1 -1zM453 604c-2 -6 -4 -9 -5 -10zM246 461l5 10l-7 -12l1 1zM422 676c-2 -2 -3 -2 -4 -2zM218 412l-3 -4zM553 902c2 -27 1 -55 -1 -82c-1 -15 -11 -36 -32 -28 c-32 12 -33 74 -33 99c-14 -14 -27 -25 -40 -40c-14 -16 -37 -37 -57 -44c-35 -12 11 45 19 53c30 32 69 84 113 98c12 5 19 2 25 -11c3 -9 2 -18 3 -27c0 -3 -2 -7 -1 -10c0 -3 4 -3 4 -8z"></glyph><glyph glyph-name="Otilde" unicode="Õ" d="M453 446c8 41 60 -9 69 -26c23 -45 8 -99 -3 -144c-15 -63 -43 -122 -74 -178c-52 -95 -136 -226 -254 -238c-72 -7 -128 51 -160 109c-1 2 -14 18 -15 26c1 -5 8 -14 10 -18c-5 10 -8 19 -11 27v-2s-14 44 -14 49c-2 20 0 40 2 60c6 47 21 91 32 136c11 46 30 88 51 129 c9 18 18 36 29 53c2 5 24 45 29 44l-6 -11l28 45l-2 -2c4 6 9 17 12 21l21 30c15 20 29 40 44 59c34 43 73 83 120 110c31 18 68 35 103 20c37 -17 83 -60 87 -102c2 -23 -13 -56 -25 -74c-29 -45 -70 -86 -112 -118c-21 -17 -50 -42 -79 -37c-12 1 -41 13 -30 29 c0 1 3 2 7 4h-1c2 1 39 26 41 28c3 3 36 34 39 33c0 0 -28 -29 -30 -32c34 29 62 65 84 105c12 23 31 58 25 86c-6 29 -37 18 -56 7c-41 -25 -74 -68 -101 -106c26 36 58 77 97 101c-21 -15 -42 -39 -54 -52c-72 -82 -126 -183 -171 -282c-43 -95 -85 -205 -93 -309 c-3 -38 1 -89 49 -93c18 -1 37 4 53 10c10 4 19 8 27 13c0 0 21 12 16 7c10 7 19 15 28 23c-2 -1 -25 -17 -25 -16c1 9 27 27 33 33c11 11 22 23 32 36c22 29 41 60 58 92c35 64 62 133 79 204c7 29 14 60 13 91c0 6 -3 14 -2 20zM57 249c24 70 61 137 99 200 c37 60 74 122 121 175c12 13 26 29 41 43c-14 -12 -26 -26 -38 -38c-49 -55 -92 -115 -132 -177c-40 -63 -74 -134 -97 -205c-15 -45 -29 -93 -35 -141c7 48 25 98 41 143zM450 682c-5 0 -9 0 -13 -1c25 8 32 -7 30 -27c1 14 -3 26 -17 28zM456 613c4 11 9 25 11 38 c-1 -14 -6 -27 -11 -38zM244 458c-1 -1 -2 -2 -2 -3c0 0 0 1 1 2l-22 -38l20 33l4 7l-1 -1l-1 -1zM453 604c-2 -6 -4 -9 -5 -10zM246 461l5 10l-7 -12l1 1zM422 676c-2 -2 -3 -2 -4 -2zM218 412l-3 -4zM579 847c3 3 9 21 19 7c9 -12 -10 -25 -14 -31c-6 -8 -11 -15 -21 -21 c-17 -10 -40 -12 -57 -8c-21 6 -39 21 -60 25c-13 3 -25 6 -39 2c-11 -3 -26 -18 -37 -9c-33 24 47 63 60 67c48 19 66 -21 107 -37c14 -6 30 -5 42 5z"></glyph><glyph glyph-name="Odieresis" unicode="Ö" d="M453 446c8 41 60 -9 69 -26c23 -45 8 -99 -3 -144c-15 -63 -43 -122 -74 -178c-52 -95 -136 -226 -254 -238c-72 -7 -128 51 -160 109c-1 2 -14 18 -15 26c1 -5 8 -14 10 -18c-5 10 -8 19 -11 27v-2s-14 44 -14 49c-2 20 0 40 2 60c6 47 21 91 32 136c11 46 30 88 51 129 c9 18 18 36 29 53c2 5 24 45 29 44l-6 -11l28 45l-2 -2c4 6 9 17 12 21l21 30c15 20 29 40 44 59c34 43 73 83 120 110c31 18 68 35 103 20c37 -17 83 -60 87 -102c2 -23 -13 -56 -25 -74c-29 -45 -70 -86 -112 -118c-21 -17 -50 -42 -79 -37c-12 1 -41 13 -30 29 c0 1 3 2 7 4h-1c2 1 39 26 41 28c3 3 36 34 39 33c0 0 -28 -29 -30 -32c34 29 62 65 84 105c12 23 31 58 25 86c-6 29 -37 18 -56 7c-41 -25 -74 -68 -101 -106c26 36 58 77 97 101c-21 -15 -42 -39 -54 -52c-72 -82 -126 -183 -171 -282c-43 -95 -85 -205 -93 -309 c-3 -38 1 -89 49 -93c18 -1 37 4 53 10c10 4 19 8 27 13c0 0 21 12 16 7c10 7 19 15 28 23c-2 -1 -25 -17 -25 -16c1 9 27 27 33 33c11 11 22 23 32 36c22 29 41 60 58 92c35 64 62 133 79 204c7 29 14 60 13 91c0 6 -3 14 -2 20zM57 249c24 70 61 137 99 200 c37 60 74 122 121 175c12 13 26 29 41 43c-14 -12 -26 -26 -38 -38c-49 -55 -92 -115 -132 -177c-40 -63 -74 -134 -97 -205c-15 -45 -29 -93 -35 -141c7 48 25 98 41 143zM450 682c-5 0 -9 0 -13 -1c25 8 32 -7 30 -27c1 14 -3 26 -17 28zM456 613c4 11 9 25 11 38 c-1 -14 -6 -27 -11 -38zM244 458c-1 -1 -2 -2 -2 -3c0 0 0 1 1 2l-22 -38l20 33l4 7l-1 -1l-1 -1zM453 604c-2 -6 -4 -9 -5 -10zM246 461l5 10l-7 -12l1 1zM422 676c-2 -2 -3 -2 -4 -2zM218 412l-3 -4zM599 864c1 -5 3 -21 1 -26h-1c-2 -14 -11 -26 -21 -36c4 3 8 6 9 6 c4 -2 -33 -29 -36 -31c-8 -5 -11 -7 -20 -6c-3 1 -22 12 -19 14c1 1 2 1 3 0c-1 1 -9 8 -8 6c10 -13 -3 0 -4 3c-3 8 -5 11 -4 21c1 16 9 28 21 39c17 16 70 46 77 5c-2 21 -22 25 -39 21c18 6 32 4 41 -16zM459 875c10 1 -5 -33 -6 -36c-6 -16 -13 -27 -29 -38 c-6 -4 -18 -15 -25 -15c-12 -1 -29 16 -35 26c-10 18 6 45 19 59c6 6 13 9 19 14c2 2 -2 6 4 9c7 4 14 0 20 0c1 0 2 4 6 4c5 0 9 -1 13 -3c10 -4 12 -9 14 -20zM534 772c2 4 -5 2 -9 5c2 -3 5 -4 8 -5h1zM539 872c-2 3 1 4 6 5c0 0 -5 -5 -6 -5zM594 830v1c0 1 0 3 1 5 c-1 -5 -3 -10 -5 -14zM598 847c0 7 -2 -1 -2 -6c0 2 1 4 2 6zM550 780c3 1 6 4 10 7zM575 799c1 0 2 1 3 2zM573 797c0 0 1 1 2 1c-1 0 -2 -1 -2 -1zM558 880c-2 0 -3 -1 -4 -1c1 0 2 1 4 1z"></glyph><glyph glyph-name="Ugrave" unicode="Ù" d="M614 540c1 -10 -5 -13 -10 -18c1 1 2 1 3 1c2 -1 -22 -38 -25 -36c-2 0 9 17 8 17c-35 -52 -63 -107 -87 -164c12 25 48 101 55 106c-7 -9 -52 -108 -56 -117c-17 -40 -33 -82 -45 -124c-11 -41 -20 -82 -32 -123c-10 -35 -24 -75 -28 -108c1 4 2 8 5 12 c-1 -1 -1 -48 0 -55c2 -12 0 -14 10 -13c17 2 37 30 47 41c7 9 20 33 31 37c8 4 10 3 14 -6c6 -14 -4 -41 -9 -55c-6 -17 -15 -30 -25 -45c-15 -22 -31 -38 -60 -37c-27 2 -51 14 -67 36c-26 36 -29 85 -24 127c2 16 8 29 12 43c1 5 1 35 4 36c1 -1 1 -2 1 -3c1 2 1 4 1 7 c-2 -2 0 22 2 27c3 13 7 26 11 39c7 24 9 48 17 72c-28 -45 -56 -91 -87 -133c-30 -39 -63 -74 -96 -110c0 0 -11 -15 -16 -17c3 2 12 13 12 13l-19 -18c11 8 -5 -9 -9 -11c-5 -5 -12 -8 -19 -9s-15 1 -22 3c-41 13 -79 49 -100 86c-11 21 -12 42 -11 65c2 22 5 43 9 64 c2 6 11 50 15 50c0 0 -2 -13 -1 -13c4 18 8 36 13 53l-6 -13c-2 15 12 41 16 55s8 28 13 42c11 36 24 71 40 105c16 37 30 75 48 111c9 17 16 37 29 52c8 9 12 11 17 23c14 30 31 65 52 92c4 5 8 10 14 14c29 15 64 -16 76 -41c8 -22 1 -29 -9 -42c3 2 6 4 6 3 c0 -6 -40 -61 -44 -60l14 23c-23 -32 -43 -65 -62 -100c3 4 6 8 8 9c-12 -13 -70 -158 -76 -172c-23 -56 -43 -114 -57 -174l3 30l-1 -6c0 3 1 6 1 9l-6 -25l4 10c-6 -51 -26 -104 -18 -157c1 -7 3 -20 11 -24c24 -11 90 76 101 90c33 38 68 78 95 116 c-2 -2 -11 -16 -15 -15c0 0 38 59 42 66c16 22 31 45 46 68l98 148c16 24 36 65 58 80c27 19 76 -5 80 -37zM353 65c9 40 10 75 21 115c-13 -35 -24 -70 -30 -108c-8 -46 -11 -98 -2 -144c-8 41 2 96 11 137zM186 445c-16 -40 -32 -80 -44 -121c-5 -14 -8 -28 -11 -42 c15 53 36 104 59 157c30 67 64 132 106 192c-42 -58 -82 -119 -110 -186zM163 348c11 28 41 100 63 146c-24 -48 -45 -97 -63 -146zM480 282l7 20l-18 -46c4 8 8 17 11 26zM240 523v1v-1zM315 655c0 -1 -1 -2 -2 -2c1 0 2 1 2 2zM506 709c5 -34 -40 6 -48 13 c-20 17 -37 42 -59 57c-10 6 -18 6 -10 23c2 3 6 3 7 4c2 3 -2 4 1 7c6 7 17 12 26 13c19 1 26 -3 35 -19c7 -14 17 -24 23 -38c6 -12 10 -25 14 -37c4 -8 9 -12 11 -22v-1z"></glyph><glyph glyph-name="Uacute" unicode="Ú" d="M614 540c1 -10 -5 -13 -10 -18c1 1 2 1 3 1c2 -1 -22 -38 -25 -36c-2 0 9 17 8 17c-35 -52 -63 -107 -87 -164c12 25 48 101 55 106c-7 -9 -52 -108 -56 -117c-17 -40 -33 -82 -45 -124c-11 -41 -20 -82 -32 -123c-10 -35 -24 -75 -28 -108c1 4 2 8 5 12 c-1 -1 -1 -48 0 -55c2 -12 0 -14 10 -13c17 2 37 30 47 41c7 9 20 33 31 37c8 4 10 3 14 -6c6 -14 -4 -41 -9 -55c-6 -17 -15 -30 -25 -45c-15 -22 -31 -38 -60 -37c-27 2 -51 14 -67 36c-26 36 -29 85 -24 127c2 16 8 29 12 43c1 5 1 35 4 36c1 -1 1 -2 1 -3c1 2 1 4 1 7 c-2 -2 0 22 2 27c3 13 7 26 11 39c7 24 9 48 17 72c-28 -45 -56 -91 -87 -133c-30 -39 -63 -74 -96 -110c0 0 -11 -15 -16 -17c3 2 12 13 12 13l-19 -18c11 8 -5 -9 -9 -11c-5 -5 -12 -8 -19 -9s-15 1 -22 3c-41 13 -79 49 -100 86c-11 21 -12 42 -11 65c2 22 5 43 9 64 c2 6 11 50 15 50c0 0 -2 -13 -1 -13c4 18 8 36 13 53l-6 -13c-2 15 12 41 16 55s8 28 13 42c11 36 24 71 40 105c16 37 30 75 48 111c9 17 16 37 29 52c8 9 12 11 17 23c14 30 31 65 52 92c4 5 8 10 14 14c29 15 64 -16 76 -41c8 -22 1 -29 -9 -42c3 2 6 4 6 3 c0 -6 -40 -61 -44 -60l14 23c-23 -32 -43 -65 -62 -100c3 4 6 8 8 9c-12 -13 -70 -158 -76 -172c-23 -56 -43 -114 -57 -174l3 30l-1 -6c0 3 1 6 1 9l-6 -25l4 10c-6 -51 -26 -104 -18 -157c1 -7 3 -20 11 -24c24 -11 90 76 101 90c33 38 68 78 95 116 c-2 -2 -11 -16 -15 -15c0 0 38 59 42 66c16 22 31 45 46 68l98 148c16 24 36 65 58 80c27 19 76 -5 80 -37zM353 65c9 40 10 75 21 115c-13 -35 -24 -70 -30 -108c-8 -46 -11 -98 -2 -144c-8 41 2 96 11 137zM186 445c-16 -40 -32 -80 -44 -121c-5 -14 -8 -28 -11 -42 c15 53 36 104 59 157c30 67 64 132 106 192c-42 -58 -82 -119 -110 -186zM163 348c11 28 41 100 63 146c-24 -48 -45 -97 -63 -146zM480 282l7 20l-18 -46c4 8 8 17 11 26zM240 523v1v-1zM315 655c0 -1 -1 -2 -2 -2c1 0 2 1 2 2zM554 746c6 -3 -31 -36 -34 -39 c-15 -17 -37 -33 -54 -46c-4 -3 -19 -14 -25 -9c-10 7 10 47 15 56l37 64c3 6 -2 11 10 12c5 1 17 -2 18 -2c10 -3 21 -7 28 -18c2 -3 4 -16 5 -18z"></glyph><glyph glyph-name="Ucircumflex" unicode="Û" d="M614 540c1 -10 -5 -13 -10 -18c1 1 2 1 3 1c2 -1 -22 -38 -25 -36c-2 0 9 17 8 17c-35 -52 -63 -107 -87 -164c12 25 48 101 55 106c-7 -9 -52 -108 -56 -117c-17 -40 -33 -82 -45 -124c-11 -41 -20 -82 -32 -123c-10 -35 -24 -75 -28 -108c1 4 2 8 5 12 c-1 -1 -1 -48 0 -55c2 -12 0 -14 10 -13c17 2 37 30 47 41c7 9 20 33 31 37c8 4 10 3 14 -6c6 -14 -4 -41 -9 -55c-6 -17 -15 -30 -25 -45c-15 -22 -31 -38 -60 -37c-27 2 -51 14 -67 36c-26 36 -29 85 -24 127c2 16 8 29 12 43c1 5 1 35 4 36c1 -1 1 -2 1 -3c1 2 1 4 1 7 c-2 -2 0 22 2 27c3 13 7 26 11 39c7 24 9 48 17 72c-28 -45 -56 -91 -87 -133c-30 -39 -63 -74 -96 -110c0 0 -11 -15 -16 -17c3 2 12 13 12 13l-19 -18c11 8 -5 -9 -9 -11c-5 -5 -12 -8 -19 -9s-15 1 -22 3c-41 13 -79 49 -100 86c-11 21 -12 42 -11 65c2 22 5 43 9 64 c2 6 11 50 15 50c0 0 -2 -13 -1 -13c4 18 8 36 13 53l-6 -13c-2 15 12 41 16 55s8 28 13 42c11 36 24 71 40 105c16 37 30 75 48 111c9 17 16 37 29 52c8 9 12 11 17 23c14 30 31 65 52 92c4 5 8 10 14 14c29 15 64 -16 76 -41c8 -22 1 -29 -9 -42c3 2 6 4 6 3 c0 -6 -40 -61 -44 -60l14 23c-23 -32 -43 -65 -62 -100c3 4 6 8 8 9c-12 -13 -70 -158 -76 -172c-23 -56 -43 -114 -57 -174l3 30l-1 -6c0 3 1 6 1 9l-6 -25l4 10c-6 -51 -26 -104 -18 -157c1 -7 3 -20 11 -24c24 -11 90 76 101 90c33 38 68 78 95 116 c-2 -2 -11 -16 -15 -15c0 0 38 59 42 66c16 22 31 45 46 68l98 148c16 24 36 65 58 80c27 19 76 -5 80 -37zM353 65c9 40 10 75 21 115c-13 -35 -24 -70 -30 -108c-8 -46 -11 -98 -2 -144c-8 41 2 96 11 137zM186 445c-16 -40 -32 -80 -44 -121c-5 -14 -8 -28 -11 -42 c15 53 36 104 59 157c30 67 64 132 106 192c-42 -58 -82 -119 -110 -186zM163 348c11 28 41 100 63 146c-24 -48 -45 -97 -63 -146zM480 282l7 20l-18 -46c4 8 8 17 11 26zM240 523v1v-1zM315 655c0 -1 -1 -2 -2 -2c1 0 2 1 2 2zM570 766c2 -27 1 -55 -1 -82 c-1 -15 -11 -36 -32 -28c-32 12 -33 74 -33 99c-14 -14 -27 -25 -40 -40c-14 -16 -37 -37 -57 -44c-35 -12 11 45 19 53c30 32 69 84 113 98c12 5 19 2 25 -11c3 -9 2 -18 3 -27c0 -3 -2 -7 -1 -10c0 -3 4 -3 4 -8z"></glyph><glyph glyph-name="Udieresis" unicode="Ü" d="M614 540c1 -10 -5 -13 -10 -18c1 1 2 1 3 1c2 -1 -22 -38 -25 -36c-2 0 9 17 8 17c-35 -52 -63 -107 -87 -164c12 25 48 101 55 106c-7 -9 -52 -108 -56 -117c-17 -40 -33 -82 -45 -124c-11 -41 -20 -82 -32 -123c-10 -35 -24 -75 -28 -108c1 4 2 8 5 12 c-1 -1 -1 -48 0 -55c2 -12 0 -14 10 -13c17 2 37 30 47 41c7 9 20 33 31 37c8 4 10 3 14 -6c6 -14 -4 -41 -9 -55c-6 -17 -15 -30 -25 -45c-15 -22 -31 -38 -60 -37c-27 2 -51 14 -67 36c-26 36 -29 85 -24 127c2 16 8 29 12 43c1 5 1 35 4 36c1 -1 1 -2 1 -3c1 2 1 4 1 7 c-2 -2 0 22 2 27c3 13 7 26 11 39c7 24 9 48 17 72c-28 -45 -56 -91 -87 -133c-30 -39 -63 -74 -96 -110c0 0 -11 -15 -16 -17c3 2 12 13 12 13l-19 -18c11 8 -5 -9 -9 -11c-5 -5 -12 -8 -19 -9s-15 1 -22 3c-41 13 -79 49 -100 86c-11 21 -12 42 -11 65c2 22 5 43 9 64 c2 6 11 50 15 50c0 0 -2 -13 -1 -13c4 18 8 36 13 53l-6 -13c-2 15 12 41 16 55s8 28 13 42c11 36 24 71 40 105c16 37 30 75 48 111c9 17 16 37 29 52c8 9 12 11 17 23c14 30 31 65 52 92c4 5 8 10 14 14c29 15 64 -16 76 -41c8 -22 1 -29 -9 -42c3 2 6 4 6 3 c0 -6 -40 -61 -44 -60l14 23c-23 -32 -43 -65 -62 -100c3 4 6 8 8 9c-12 -13 -70 -158 -76 -172c-23 -56 -43 -114 -57 -174l3 30l-1 -6c0 3 1 6 1 9l-6 -25l4 10c-6 -51 -26 -104 -18 -157c1 -7 3 -20 11 -24c24 -11 90 76 101 90c33 38 68 78 95 116 c-2 -2 -11 -16 -15 -15c0 0 38 59 42 66c16 22 31 45 46 68l98 148c16 24 36 65 58 80c27 19 76 -5 80 -37zM353 65c9 40 10 75 21 115c-13 -35 -24 -70 -30 -108c-8 -46 -11 -98 -2 -144c-8 41 2 96 11 137zM186 445c-16 -40 -32 -80 -44 -121c-5 -14 -8 -28 -11 -42 c15 53 36 104 59 157c30 67 64 132 106 192c-42 -58 -82 -119 -110 -186zM163 348c11 28 41 100 63 146c-24 -48 -45 -97 -63 -146zM480 282l7 20l-18 -46c4 8 8 17 11 26zM240 523v1v-1zM315 655c0 -1 -1 -2 -2 -2c1 0 2 1 2 2zM628 779c1 -5 3 -21 1 -26h-1 c-2 -14 -11 -26 -21 -36c4 3 8 6 9 6c4 -2 -33 -29 -36 -31c-8 -5 -11 -7 -20 -6c-3 1 -22 12 -19 14c1 1 2 1 3 0c-1 1 -9 8 -8 6c10 -13 -3 0 -4 3c-3 8 -5 11 -4 21c1 16 9 28 21 39c17 16 70 46 77 5c-2 21 -22 25 -39 21c18 6 32 4 41 -16zM488 790c10 1 -5 -33 -6 -36 c-6 -16 -13 -27 -29 -38c-6 -4 -18 -15 -25 -15c-12 -1 -29 16 -35 26c-10 18 6 45 19 59c6 6 13 9 19 14c2 2 -2 6 4 9c7 4 14 0 20 0c1 0 2 4 6 4c5 0 9 -1 13 -3c10 -4 12 -9 14 -20zM563 687c2 4 -5 2 -9 5c2 -3 5 -4 8 -5h1zM568 787c-2 3 1 4 6 5c0 0 -5 -5 -6 -5z M623 745v1c0 1 0 3 1 5c-1 -5 -3 -10 -5 -14zM627 762c0 7 -2 -1 -2 -6c0 2 1 4 2 6zM579 695c3 1 6 4 10 7zM604 714c1 0 2 1 3 2zM602 712c0 0 1 1 2 1c-1 0 -2 -1 -2 -1zM587 795c-2 0 -3 -1 -4 -1c1 0 2 1 4 1z"></glyph><glyph glyph-name="Oslash" unicode="Ø" d="M453 446c8 41 60 -9 69 -26c23 -45 8 -99 -3 -144c-15 -63 -43 -122 -74 -178c-52 -95 -136 -226 -254 -238c-72 -7 -128 51 -160 109c-1 2 -14 18 -15 26c1 -5 8 -14 10 -18c-5 10 -8 19 -11 27v-2s-14 44 -14 49c-2 20 0 40 2 60c6 47 21 91 32 136c11 46 30 88 51 129 c9 18 18 36 29 53c2 5 24 45 29 44l-6 -11l28 45l-2 -2c4 6 9 17 12 21l21 30c15 20 29 40 44 59c34 43 73 83 120 110c31 18 68 35 103 20c37 -17 83 -60 87 -102c2 -23 -13 -56 -25 -74c-29 -45 -70 -86 -112 -118c-21 -17 -50 -42 -79 -37c-12 1 -41 13 -30 29 c0 1 3 2 7 4h-1c2 1 39 26 41 28c3 3 36 34 39 33c0 0 -28 -29 -30 -32c34 29 62 65 84 105c12 23 31 58 25 86c-6 29 -37 18 -56 7c-41 -25 -74 -68 -101 -106c26 36 58 77 97 101c-21 -15 -42 -39 -54 -52c-72 -82 -126 -183 -171 -282c-43 -95 -85 -205 -93 -309 c-3 -38 1 -89 49 -93c18 -1 37 4 53 10c10 4 19 8 27 13c0 0 21 12 16 7c10 7 19 15 28 23c-2 -1 -25 -17 -25 -16c1 9 27 27 33 33c11 11 22 23 32 36c22 29 41 60 58 92c35 64 62 133 79 204c7 29 14 60 13 91c0 6 -3 14 -2 20zM57 249c24 70 61 137 99 200 c37 60 74 122 121 175c12 13 26 29 41 43c-14 -12 -26 -26 -38 -38c-49 -55 -92 -115 -132 -177c-40 -63 -74 -134 -97 -205c-15 -45 -29 -93 -35 -141c7 48 25 98 41 143zM450 682c-5 0 -9 0 -13 -1c25 8 32 -7 30 -27c1 14 -3 26 -17 28zM456 613c4 11 9 25 11 38 c-1 -14 -6 -27 -11 -38zM244 458c-1 -1 -2 -2 -2 -3c0 0 0 1 1 2l-22 -38l20 33l4 7l-1 -1l-1 -1zM453 604c-2 -6 -4 -9 -5 -10zM246 461l5 10l-7 -12l1 1zM422 676c-2 -2 -3 -2 -4 -2zM218 412l-3 -4zM606 706c6 0 -15 -51 -17 -56c-16 -33 -34 -62 -53 -91c0 0 1 0 1 1 c-15 -24 -28 -55 -43 -80c-33 -56 -67 -110 -101 -163c-48 -77 -92 -158 -142 -234c0 -1 -1 -2 -1 -2l-11 -16c-32 -49 -66 -110 -100 -161l-49 -75c-6 -9 -26 -44 -37 -40c-15 5 2 38 5 47c-1 -2 1 4 1 3v-2v2c0 -2 -1 -3 -2 -7c3 5 3 8 3 8l4 9c-6 15 25 64 32 77 c25 51 52 101 79 150c41 74 85 146 128 217c56 95 117 186 179 274c24 34 48 68 74 99c15 19 29 37 50 40zM64 -151l12 29c-3 -4 -13 -23 -12 -29zM535 557c0 0 1 1 1 2c0 -1 -1 -2 -1 -2zM60 -160l-1 -1s1 0 1 1zM240 66l-1 -1c1 0 1 1 1 1z"></glyph><glyph glyph-name="Yacute" unicode="Ý" d="M40 306l3 7v-1c6 13 6 38 9 51c8 32 16 64 27 95c20 57 41 116 68 170c7 13 17 22 25 34c8 11 12 26 18 39c9 20 22 56 44 64c24 10 50 -12 64 -30c13 -22 13 -35 1 -54c2 2 5 4 5 3c0 -8 -33 -59 -38 -57c0 0 12 24 13 27c-19 -31 -37 -62 -52 -95c2 3 3 4 5 5 c-6 -4 -39 -97 -42 -106c-32 -83 -55 -169 -66 -258c-2 -18 -9 -64 23 -55c23 7 43 35 58 53c52 61 106 121 152 187c-1 -1 -14 -15 -14 -14c-4 11 15 30 20 37c13 16 24 33 35 50l91 143c14 21 29 42 41 64c9 16 14 29 35 29c25 0 58 -26 69 -51c0 0 0 -1 1 -2 c0 -1 0 -2 1 -2h-1c1 -1 1 -2 1 -2l1 -1c9 -44 -38 -93 -51 -133c-9 -29 -15 -57 -26 -85l-38 -95l-76 -189c-24 -58 -42 -118 -69 -175c-46 -101 -94 -211 -165 -298c-56 -69 -169 -19 -201 51c-42 95 46 192 111 251c8 7 75 78 79 52c2 -10 -16 -27 -21 -34 c-12 -15 -23 -31 -33 -48c-24 -38 -44 -79 -59 -122c-9 -27 -23 -65 -12 -93c12 -34 50 -21 70 -2c28 27 46 67 64 101c105 205 178 423 251 641c-42 -70 -83 -140 -129 -207c-21 -29 -43 -57 -68 -83c-10 -9 -19 -18 -27 -29c-4 -5 -10 -21 -17 -21l5 8 c-3 -4 -7 -7 -10 -10c1 0 2 0 3 -1c-6 -29 -51 -45 -76 -39c-33 8 -73 37 -95 63c-20 24 -25 52 -23 83c1 6 1 58 11 59c1 0 -1 -12 0 -13c2 14 4 27 7 41c-1 -1 -1 -3 -2 -3zM104 471c4 11 10 22 14 33c0 0 34 61 33 61c28 76 41 93 75 157c-22 -40 -51 -81 -69 -121 c-20 -45 -37 -85 -53 -130zM347 -41c20 44 38 87 56 131c-6 -11 -23 -37 -27 -48c-13 -33 -15 -51 -29 -83zM637 636v1h-1zM528 817c6 -3 -31 -36 -34 -39c-15 -17 -37 -33 -54 -46c-4 -3 -19 -14 -25 -9c-10 7 10 47 15 56l37 64c3 6 -2 11 10 12c5 1 17 -2 18 -2 c10 -3 21 -7 28 -18c2 -3 4 -16 5 -18z"></glyph><glyph glyph-name="agrave" unicode="à" d="M509 241c2 -23 -20 -46 -28 -65c-13 -30 -28 -57 -44 -84c-19 -30 -38 -59 -60 -85c-18 -23 -43 -52 -73 -57c-34 -6 -61 22 -72 52c-24 59 -7 121 11 178c0 0 0 9 1 16c-10 -15 -24 -33 -33 -47c-12 -19 -21 -38 -34 -56c-6 -9 -88 -108 -99 -91c0 0 12 5 11 7 c-12 -8 -28 -10 -42 -6c3 -2 5 -3 4 -3c-23 -3 -41 33 -46 49c-8 28 -6 59 -1 87c11 58 35 121 69 171c9 12 18 26 31 35c8 7 15 8 24 14c15 13 28 24 50 24c49 0 69 -56 79 -94c24 31 67 72 104 27c20 -24 7 -42 -4 -64c-19 -35 -34 -78 -42 -114c1 3 4 18 8 19 c8 2 -64 -224 39 -97c31 39 58 80 85 121c12 19 24 39 37 58c6 8 24 27 25 5zM222 234c5 8 5 8 5 16s-20 63 -15 67c1 1 10 -28 11 -30c-3 12 -7 49 -25 49c-33 0 -58 -61 -69 -84c-20 -45 -38 -93 -46 -142c3 15 61 196 79 195c-14 -3 -67 -157 -70 -171 c-2 -8 -18 -60 -3 -65c10 -3 34 28 39 35c19 23 37 47 54 72l26 37c4 7 9 14 14 21zM245 185l9 24l-5 -7c-1 -3 -4 -17 -4 -17zM230 247c3 3 3 6 0 10v-10zM278 412c5 -34 -40 6 -48 13c-20 17 -37 42 -59 57c-10 6 -18 6 -10 23c2 3 6 3 7 4c2 3 -2 4 1 7c6 7 17 12 26 13 c19 1 26 -3 35 -19c7 -14 17 -24 23 -38c6 -12 10 -25 14 -37c4 -8 9 -12 11 -22v-1z"></glyph><glyph glyph-name="aacute" unicode="á" d="M509 241c2 -23 -20 -46 -28 -65c-13 -30 -28 -57 -44 -84c-19 -30 -38 -59 -60 -85c-18 -23 -43 -52 -73 -57c-34 -6 -61 22 -72 52c-24 59 -7 121 11 178c0 0 0 9 1 16c-10 -15 -24 -33 -33 -47c-12 -19 -21 -38 -34 -56c-6 -9 -88 -108 -99 -91c0 0 12 5 11 7 c-12 -8 -28 -10 -42 -6c3 -2 5 -3 4 -3c-23 -3 -41 33 -46 49c-8 28 -6 59 -1 87c11 58 35 121 69 171c9 12 18 26 31 35c8 7 15 8 24 14c15 13 28 24 50 24c49 0 69 -56 79 -94c24 31 67 72 104 27c20 -24 7 -42 -4 -64c-19 -35 -34 -78 -42 -114c1 3 4 18 8 19 c8 2 -64 -224 39 -97c31 39 58 80 85 121c12 19 24 39 37 58c6 8 24 27 25 5zM222 234c5 8 5 8 5 16s-20 63 -15 67c1 1 10 -28 11 -30c-3 12 -7 49 -25 49c-33 0 -58 -61 -69 -84c-20 -45 -38 -93 -46 -142c3 15 61 196 79 195c-14 -3 -67 -157 -70 -171 c-2 -8 -18 -60 -3 -65c10 -3 34 28 39 35c19 23 37 47 54 72l26 37c4 7 9 14 14 21zM245 185l9 24l-5 -7c-1 -3 -4 -17 -4 -17zM230 247c3 3 3 6 0 10v-10zM382 493c6 -3 -31 -36 -34 -39c-15 -17 -37 -33 -54 -46c-4 -3 -19 -14 -25 -9c-10 7 10 47 15 56l37 64 c3 6 -2 11 10 12c5 1 17 -2 18 -2c10 -3 21 -7 28 -18c2 -3 4 -16 5 -18z"></glyph><glyph glyph-name="acircumflex" unicode="â" d="M509 241c2 -23 -20 -46 -28 -65c-13 -30 -28 -57 -44 -84c-19 -30 -38 -59 -60 -85c-18 -23 -43 -52 -73 -57c-34 -6 -61 22 -72 52c-24 59 -7 121 11 178c0 0 0 9 1 16c-10 -15 -24 -33 -33 -47c-12 -19 -21 -38 -34 -56c-6 -9 -88 -108 -99 -91c0 0 12 5 11 7 c-12 -8 -28 -10 -42 -6c3 -2 5 -3 4 -3c-23 -3 -41 33 -46 49c-8 28 -6 59 -1 87c11 58 35 121 69 171c9 12 18 26 31 35c8 7 15 8 24 14c15 13 28 24 50 24c49 0 69 -56 79 -94c24 31 67 72 104 27c20 -24 7 -42 -4 -64c-19 -35 -34 -78 -42 -114c1 3 4 18 8 19 c8 2 -64 -224 39 -97c31 39 58 80 85 121c12 19 24 39 37 58c6 8 24 27 25 5zM222 234c5 8 5 8 5 16s-20 63 -15 67c1 1 10 -28 11 -30c-3 12 -7 49 -25 49c-33 0 -58 -61 -69 -84c-20 -45 -38 -93 -46 -142c3 15 61 196 79 195c-14 -3 -67 -157 -70 -171 c-2 -8 -18 -60 -3 -65c10 -3 34 28 39 35c19 23 37 47 54 72l26 37c4 7 9 14 14 21zM245 185l9 24l-5 -7c-1 -3 -4 -17 -4 -17zM230 247c3 3 3 6 0 10v-10zM348 507c2 -27 1 -55 -1 -82c-1 -15 -11 -36 -32 -28c-32 12 -33 74 -33 99c-14 -14 -27 -25 -40 -40 c-14 -16 -37 -37 -57 -44c-35 -12 11 45 19 53c30 32 69 84 113 98c12 5 19 2 25 -11c3 -9 2 -18 3 -27c0 -3 -2 -7 -1 -10c0 -3 4 -3 4 -8z"></glyph><glyph glyph-name="atilde" unicode="ã" d="M509 241c2 -23 -20 -46 -28 -65c-13 -30 -28 -57 -44 -84c-19 -30 -38 -59 -60 -85c-18 -23 -43 -52 -73 -57c-34 -6 -61 22 -72 52c-24 59 -7 121 11 178c0 0 0 9 1 16c-10 -15 -24 -33 -33 -47c-12 -19 -21 -38 -34 -56c-6 -9 -88 -108 -99 -91c0 0 12 5 11 7 c-12 -8 -28 -10 -42 -6c3 -2 5 -3 4 -3c-23 -3 -41 33 -46 49c-8 28 -6 59 -1 87c11 58 35 121 69 171c9 12 18 26 31 35c8 7 15 8 24 14c15 13 28 24 50 24c49 0 69 -56 79 -94c24 31 67 72 104 27c20 -24 7 -42 -4 -64c-19 -35 -34 -78 -42 -114c1 3 4 18 8 19 c8 2 -64 -224 39 -97c31 39 58 80 85 121c12 19 24 39 37 58c6 8 24 27 25 5zM222 234c5 8 5 8 5 16s-20 63 -15 67c1 1 10 -28 11 -30c-3 12 -7 49 -25 49c-33 0 -58 -61 -69 -84c-20 -45 -38 -93 -46 -142c3 15 61 196 79 195c-14 -3 -67 -157 -70 -171 c-2 -8 -18 -60 -3 -65c10 -3 34 28 39 35c19 23 37 47 54 72l26 37c4 7 9 14 14 21zM245 185l9 24l-5 -7c-1 -3 -4 -17 -4 -17zM230 247c3 3 3 6 0 10v-10zM381 473c3 3 9 21 19 7c9 -12 -10 -25 -14 -31c-6 -8 -11 -15 -21 -21c-17 -10 -40 -12 -57 -8c-21 6 -39 21 -60 25 c-13 3 -25 6 -39 2c-11 -3 -26 -18 -37 -9c-33 24 47 63 60 67c48 19 66 -21 107 -37c14 -6 30 -5 42 5z"></glyph><glyph glyph-name="adieresis" unicode="ä" d="M509 241c2 -23 -20 -46 -28 -65c-13 -30 -28 -57 -44 -84c-19 -30 -38 -59 -60 -85c-18 -23 -43 -52 -73 -57c-34 -6 -61 22 -72 52c-24 59 -7 121 11 178c0 0 0 9 1 16c-10 -15 -24 -33 -33 -47c-12 -19 -21 -38 -34 -56c-6 -9 -88 -108 -99 -91c0 0 12 5 11 7 c-12 -8 -28 -10 -42 -6c3 -2 5 -3 4 -3c-23 -3 -41 33 -46 49c-8 28 -6 59 -1 87c11 58 35 121 69 171c9 12 18 26 31 35c8 7 15 8 24 14c15 13 28 24 50 24c49 0 69 -56 79 -94c24 31 67 72 104 27c20 -24 7 -42 -4 -64c-19 -35 -34 -78 -42 -114c1 3 4 18 8 19 c8 2 -64 -224 39 -97c31 39 58 80 85 121c12 19 24 39 37 58c6 8 24 27 25 5zM222 234c5 8 5 8 5 16s-20 63 -15 67c1 1 10 -28 11 -30c-3 12 -7 49 -25 49c-33 0 -58 -61 -69 -84c-20 -45 -38 -93 -46 -142c3 15 61 196 79 195c-14 -3 -67 -157 -70 -171 c-2 -8 -18 -60 -3 -65c10 -3 34 28 39 35c19 23 37 47 54 72l26 37c4 7 9 14 14 21zM245 185l9 24l-5 -7c-1 -3 -4 -17 -4 -17zM230 247c3 3 3 6 0 10v-10zM425 481c1 -5 3 -21 1 -26h-1c-2 -14 -11 -26 -21 -36c4 3 8 6 9 6c4 -2 -33 -29 -36 -31c-8 -5 -11 -7 -20 -6 c-3 1 -22 12 -19 14c1 1 2 1 3 0c-1 1 -9 8 -8 6c10 -13 -3 0 -4 3c-3 8 -5 11 -4 21c1 16 9 28 21 39c17 16 70 46 77 5c-2 21 -22 25 -39 21c18 6 32 4 41 -16zM285 492c10 1 -5 -33 -6 -36c-6 -16 -13 -27 -29 -38c-6 -4 -18 -15 -25 -15c-12 -1 -29 16 -35 26 c-10 18 6 45 19 59c6 6 13 9 19 14c2 2 -2 6 4 9c7 4 14 0 20 0c1 0 2 4 6 4c5 0 9 -1 13 -3c10 -4 12 -9 14 -20zM360 389c2 4 -5 2 -9 5c2 -3 5 -4 8 -5h1zM365 489c-2 3 1 4 6 5c0 0 -5 -5 -6 -5zM420 447v1c0 1 0 3 1 5c-1 -5 -3 -10 -5 -14zM424 464c0 7 -2 -1 -2 -6 c0 2 1 4 2 6zM376 397c3 1 6 4 10 7zM401 416c1 0 2 1 3 2zM399 414c0 0 1 1 2 1c-1 0 -2 -1 -2 -1zM384 497c-2 0 -3 -1 -4 -1c1 0 2 1 4 1z"></glyph><glyph glyph-name="aring" unicode="å" d="M509 241c2 -23 -20 -46 -28 -65c-13 -30 -28 -57 -44 -84c-19 -30 -38 -59 -60 -85c-18 -23 -43 -52 -73 -57c-34 -6 -61 22 -72 52c-24 59 -7 121 11 178c0 0 0 9 1 16c-10 -15 -24 -33 -33 -47c-12 -19 -21 -38 -34 -56c-6 -9 -88 -108 -99 -91c0 0 12 5 11 7 c-12 -8 -28 -10 -42 -6c3 -2 5 -3 4 -3c-23 -3 -41 33 -46 49c-8 28 -6 59 -1 87c11 58 35 121 69 171c9 12 18 26 31 35c8 7 15 8 24 14c15 13 28 24 50 24c49 0 69 -56 79 -94c24 31 67 72 104 27c20 -24 7 -42 -4 -64c-19 -35 -34 -78 -42 -114c1 3 4 18 8 19 c8 2 -64 -224 39 -97c31 39 58 80 85 121c12 19 24 39 37 58c6 8 24 27 25 5zM222 234c5 8 5 8 5 16s-20 63 -15 67c1 1 10 -28 11 -30c-3 12 -7 49 -25 49c-33 0 -58 -61 -69 -84c-20 -45 -38 -93 -46 -142c3 15 61 196 79 195c-14 -3 -67 -157 -70 -171 c-2 -8 -18 -60 -3 -65c10 -3 34 28 39 35c19 23 37 47 54 72l26 37c4 7 9 14 14 21zM245 185l9 24l-5 -7c-1 -3 -4 -17 -4 -17zM230 247c3 3 3 6 0 10v-10zM368 457c6 1 -2 -22 -2 -23c-5 -12 -11 -23 -21 -32c-11 -10 -26 -20 -42 -22c-45 -4 -77 24 -63 70 c4 12 18 39 27 45c7 4 13 1 19 3c4 1 1 4 5 5c7 2 13 1 20 1c31 -2 61 -12 57 -47zM347 447c4 6 -2 29 -10 33c-5 2 -3 0 -7 0c-17 -4 -20 -14 -26 -25c-4 -7 -25 -57 -7 -57c-1 12 14 3 18 5c-3 6 14 13 18 18c5 6 9 17 14 26z"></glyph><glyph glyph-name="ccedilla" unicode="ç" d="M392 253c15 -17 -21 -55 -30 -68c-17 -22 -34 -43 -49 -66c-37 -54 -86 -106 -136 -148c-26 -21 -59 -42 -95 -42c-2 -8 -9 -17 -11 -21c20 6 44 -31 47 -47l-1 1c0 -1 0 -1 1 -2v-1c3 -48 -45 -72 -85 -74c-12 0 -16 -1 -23 9c-7 11 -9 45 0 54c8 8 9 0 17 -1s53 0 55 8 c3 17 -30 13 -37 13c-31 -1 -8 28 2 46l8 19c-6 3 -12 6 -17 11c-6 6 -33 45 -28 51c0 0 4 -10 5 -11l-5 17c0 -6 -8 15 -8 19c-2 13 -2 27 -2 40c1 25 5 49 6 73c1 22 6 43 13 64c1 5 19 60 25 59c1 0 -2 -9 -1 -9c4 10 7 21 12 32l-4 -5c-1 1 35 74 39 81 c16 26 35 49 60 67c17 13 37 22 59 19c27 -4 36 -17 46 -38c9 -20 16 -35 14 -61c-1 -15 -3 -35 -10 -50c-7 -14 -38 -33 -54 -22c-13 9 -3 15 2 23l-5 -4s14 51 16 51c1 0 -3 -22 -3 -23c4 13 17 102 -17 75c-13 -10 -21 -31 -28 -44c-12 -25 -22 -50 -31 -75 c12 32 26 64 44 93c6 11 13 23 24 29c1 1 9 -2 7 -3c-1 -1 -5 3 -7 1c-23 -22 -36 -51 -49 -80c-27 -63 -49 -129 -60 -196c-5 -32 -10 -69 -3 -100c2 -7 4 -17 11 -21c17 -12 44 10 58 20c21 16 44 32 61 50c-3 -2 -6 -4 -9 -5c-2 0 17 24 19 26c10 10 19 21 28 32 c16 20 33 40 49 61c8 10 60 93 80 73zM69 258c0 1 1 3 1 5c-8 -19 -21 -36 -23 -53c1 5 10 11 13 18c4 9 7 20 9 30zM32 141c2 2 -1 6 -1 6c-4 -12 -4 -25 -3 -37c0 11 0 24 4 31zM117 209c-5 -15 -10 -29 -13 -44zM34 160l2 3c-5 -2 -5 -7 -5 -12c0 2 2 6 3 9zM118 213 c-1 -1 -1 -3 -1 -4z"></glyph><glyph glyph-name="egrave" unicode="è" d="M383 247c4 -8 1 -13 -4 -19l-31 -41l-54 -70c-14 -18 -31 -35 -45 -53c-15 -20 -28 -41 -45 -60c-18 -19 -39 -39 -63 -52c-17 -9 -33 -10 -51 -5c-26 7 -49 23 -66 43c-5 6 -10 11 -11 19c-1 6 -2 13 -2 20c-1 12 3 21 5 33c2 13 8 25 10 38c2 14 6 27 8 40 c1 12 -1 25 2 37c2 8 8 16 11 25c-3 -6 -8 -12 -9 -17c-3 -8 -5 -16 -8 -23c-3 -8 -4 -15 -7 -23c-4 -9 -8 -17 -9 -27c-1 -9 0 -18 -1 -27c-2 -9 -4 -16 -4 -25c0 -3 2 -9 2 -11c0 -4 -2 -9 -2 -14c0 -9 2 -18 3 -28c-16 28 -13 56 -8 86s9 59 16 88c13 59 40 117 78 164 c31 41 72 72 126 62c20 -4 42 -13 55 -30c14 -19 13 -43 6 -65c-13 -39 -46 -70 -77 -96c-13 -11 -27 -22 -42 -31c-10 -6 -21 -10 -32 -14l-17 -6c-7 -2 -8 -1 -11 -7c-5 -10 -2 -20 -4 -30c-2 -13 -5 -25 -8 -38c-5 -24 -13 -55 -7 -80c11 -51 95 28 110 42 c10 9 19 19 28 28c5 6 11 11 15 17c0 0 2 5 2 7c12 19 28 37 43 55c18 21 34 43 51 66c9 13 30 50 46 23v-1c1 -1 1 -1 1 0zM135 236c-5 -10 -8 -21 -13 -32c32 17 61 40 84 67l17 22c3 5 8 8 10 14c1 5 -1 9 0 15l4 21c1 10 -3 36 -18 33c-7 -2 -14 -11 -18 -16l-18 -24 c-21 -31 -32 -65 -47 -97c0 0 0 -1 -1 -3zM271 459c5 -34 -40 6 -48 13c-20 17 -37 42 -59 57c-10 6 -18 6 -10 23c2 3 6 3 7 4c2 3 -2 4 1 7c6 7 17 12 26 13c19 1 26 -3 35 -19c7 -14 17 -24 23 -38c6 -12 10 -25 14 -37c4 -8 9 -12 11 -22v-1z"></glyph><glyph glyph-name="eacute" unicode="é" d="M383 247c4 -8 1 -13 -4 -19l-31 -41l-54 -70c-14 -18 -31 -35 -45 -53c-15 -20 -28 -41 -45 -60c-18 -19 -39 -39 -63 -52c-17 -9 -33 -10 -51 -5c-26 7 -49 23 -66 43c-5 6 -10 11 -11 19c-1 6 -2 13 -2 20c-1 12 3 21 5 33c2 13 8 25 10 38c2 14 6 27 8 40 c1 12 -1 25 2 37c2 8 8 16 11 25c-3 -6 -8 -12 -9 -17c-3 -8 -5 -16 -8 -23c-3 -8 -4 -15 -7 -23c-4 -9 -8 -17 -9 -27c-1 -9 0 -18 -1 -27c-2 -9 -4 -16 -4 -25c0 -3 2 -9 2 -11c0 -4 -2 -9 -2 -14c0 -9 2 -18 3 -28c-16 28 -13 56 -8 86s9 59 16 88c13 59 40 117 78 164 c31 41 72 72 126 62c20 -4 42 -13 55 -30c14 -19 13 -43 6 -65c-13 -39 -46 -70 -77 -96c-13 -11 -27 -22 -42 -31c-10 -6 -21 -10 -32 -14l-17 -6c-7 -2 -8 -1 -11 -7c-5 -10 -2 -20 -4 -30c-2 -13 -5 -25 -8 -38c-5 -24 -13 -55 -7 -80c11 -51 95 28 110 42 c10 9 19 19 28 28c5 6 11 11 15 17c0 0 2 5 2 7c12 19 28 37 43 55c18 21 34 43 51 66c9 13 30 50 46 23v-1c1 -1 1 -1 1 0zM135 236c-5 -10 -8 -21 -13 -32c32 17 61 40 84 67l17 22c3 5 8 8 10 14c1 5 -1 9 0 15l4 21c1 10 -3 36 -18 33c-7 -2 -14 -11 -18 -16l-18 -24 c-21 -31 -32 -65 -47 -97c0 0 0 -1 -1 -3zM335 551c6 -3 -31 -36 -34 -39c-15 -17 -37 -33 -54 -46c-4 -3 -19 -14 -25 -9c-10 7 10 47 15 56l37 64c3 6 -2 11 10 12c5 1 17 -2 18 -2c10 -3 21 -7 28 -18c2 -3 4 -16 5 -18z"></glyph><glyph glyph-name="ecircumflex" unicode="ê" d="M383 247c4 -8 1 -13 -4 -19l-31 -41l-54 -70c-14 -18 -31 -35 -45 -53c-15 -20 -28 -41 -45 -60c-18 -19 -39 -39 -63 -52c-17 -9 -33 -10 -51 -5c-26 7 -49 23 -66 43c-5 6 -10 11 -11 19c-1 6 -2 13 -2 20c-1 12 3 21 5 33c2 13 8 25 10 38c2 14 6 27 8 40 c1 12 -1 25 2 37c2 8 8 16 11 25c-3 -6 -8 -12 -9 -17c-3 -8 -5 -16 -8 -23c-3 -8 -4 -15 -7 -23c-4 -9 -8 -17 -9 -27c-1 -9 0 -18 -1 -27c-2 -9 -4 -16 -4 -25c0 -3 2 -9 2 -11c0 -4 -2 -9 -2 -14c0 -9 2 -18 3 -28c-16 28 -13 56 -8 86s9 59 16 88c13 59 40 117 78 164 c31 41 72 72 126 62c20 -4 42 -13 55 -30c14 -19 13 -43 6 -65c-13 -39 -46 -70 -77 -96c-13 -11 -27 -22 -42 -31c-10 -6 -21 -10 -32 -14l-17 -6c-7 -2 -8 -1 -11 -7c-5 -10 -2 -20 -4 -30c-2 -13 -5 -25 -8 -38c-5 -24 -13 -55 -7 -80c11 -51 95 28 110 42 c10 9 19 19 28 28c5 6 11 11 15 17c0 0 2 5 2 7c12 19 28 37 43 55c18 21 34 43 51 66c9 13 30 50 46 23v-1c1 -1 1 -1 1 0zM135 236c-5 -10 -8 -21 -13 -32c32 17 61 40 84 67l17 22c3 5 8 8 10 14c1 5 -1 9 0 15l4 21c1 10 -3 36 -18 33c-7 -2 -14 -11 -18 -16l-18 -24 c-21 -31 -32 -65 -47 -97c0 0 0 -1 -1 -3zM324 545c2 -27 1 -55 -1 -82c-1 -15 -11 -36 -32 -28c-32 12 -33 74 -33 99c-14 -14 -27 -25 -40 -40c-14 -16 -37 -37 -57 -44c-35 -12 11 45 19 53c30 32 69 84 113 98c12 5 19 2 25 -11c3 -9 2 -18 3 -27c0 -3 -2 -7 -1 -10 c0 -3 4 -3 4 -8z"></glyph><glyph glyph-name="edieresis" unicode="ë" d="M383 247c4 -8 1 -13 -4 -19l-31 -41l-54 -70c-14 -18 -31 -35 -45 -53c-15 -20 -28 -41 -45 -60c-18 -19 -39 -39 -63 -52c-17 -9 -33 -10 -51 -5c-26 7 -49 23 -66 43c-5 6 -10 11 -11 19c-1 6 -2 13 -2 20c-1 12 3 21 5 33c2 13 8 25 10 38c2 14 6 27 8 40 c1 12 -1 25 2 37c2 8 8 16 11 25c-3 -6 -8 -12 -9 -17c-3 -8 -5 -16 -8 -23c-3 -8 -4 -15 -7 -23c-4 -9 -8 -17 -9 -27c-1 -9 0 -18 -1 -27c-2 -9 -4 -16 -4 -25c0 -3 2 -9 2 -11c0 -4 -2 -9 -2 -14c0 -9 2 -18 3 -28c-16 28 -13 56 -8 86s9 59 16 88c13 59 40 117 78 164 c31 41 72 72 126 62c20 -4 42 -13 55 -30c14 -19 13 -43 6 -65c-13 -39 -46 -70 -77 -96c-13 -11 -27 -22 -42 -31c-10 -6 -21 -10 -32 -14l-17 -6c-7 -2 -8 -1 -11 -7c-5 -10 -2 -20 -4 -30c-2 -13 -5 -25 -8 -38c-5 -24 -13 -55 -7 -80c11 -51 95 28 110 42 c10 9 19 19 28 28c5 6 11 11 15 17c0 0 2 5 2 7c12 19 28 37 43 55c18 21 34 43 51 66c9 13 30 50 46 23v-1c1 -1 1 -1 1 0zM135 236c-5 -10 -8 -21 -13 -32c32 17 61 40 84 67l17 22c3 5 8 8 10 14c1 5 -1 9 0 15l4 21c1 10 -3 36 -18 33c-7 -2 -14 -11 -18 -16l-18 -24 c-21 -31 -32 -65 -47 -97c0 0 0 -1 -1 -3zM358 528c1 -5 3 -21 1 -26h-1c-2 -14 -11 -26 -21 -36c4 3 8 6 9 6c4 -2 -33 -29 -36 -31c-8 -5 -11 -7 -20 -6c-3 1 -22 12 -19 14c1 1 2 1 3 0c-1 1 -9 8 -8 6c10 -13 -3 0 -4 3c-3 8 -5 11 -4 21c1 16 9 28 21 39 c17 16 70 46 77 5c-2 21 -22 25 -39 21c18 6 32 4 41 -16zM218 539c10 1 -5 -33 -6 -36c-6 -16 -13 -27 -29 -38c-6 -4 -18 -15 -25 -15c-12 -1 -29 16 -35 26c-10 18 6 45 19 59c6 6 13 9 19 14c2 2 -2 6 4 9c7 4 14 0 20 0c1 0 2 4 6 4c5 0 9 -1 13 -3c10 -4 12 -9 14 -20 zM293 436c2 4 -5 2 -9 5c2 -3 5 -4 8 -5h1zM298 536c-2 3 1 4 6 5c0 0 -5 -5 -6 -5zM353 494v1c0 1 0 3 1 5c-1 -5 -3 -10 -5 -14zM357 511c0 7 -2 -1 -2 -6c0 2 1 4 2 6zM309 444c3 1 6 4 10 7zM334 463c1 0 2 1 3 2zM332 461c0 0 1 1 2 1c-1 0 -2 -1 -2 -1zM317 544 c-2 0 -3 -1 -4 -1c1 0 2 1 4 1z"></glyph><glyph glyph-name="igrave" unicode="ì" d="M262 246c4 -19 -14 -41 -24 -54c-17 -25 -33 -49 -52 -73c-20 -27 -45 -70 -80 -78c-8 -1 -46 9 -45 15h2c-8 4 0 -5 -12 4c-9 6 -15 15 -21 24c-11 15 -25 28 -29 46c-1 5 -3 41 5 41c2 0 0 -5 1 -5l3 18c-1 -2 -1 -3 -3 -4c-4 1 15 72 17 78c8 21 12 45 32 57 c15 10 34 8 53 0c8 -3 31 -13 31 -23c0 -6 -5 -7 -8 -10c1 1 3 1 4 1c3 -2 -12 -23 -14 -22c-2 0 1 5 2 8c-19 -31 -35 -66 -47 -101c5 13 30 69 33 68s-66 -121 -32 -138c16 -8 43 17 54 26c19 15 45 34 59 51c-2 -2 -4 -2 -7 -2c-4 5 46 71 55 77c7 5 21 9 23 -4zM68 134 c1 2 1 2 0 1l-2 -8l2 6v1zM138 381c5 -34 -40 6 -48 13c-20 17 -37 42 -59 57c-10 6 -18 6 -10 23c2 3 6 3 7 4c2 3 -2 4 1 7c6 7 17 12 26 13c19 1 26 -3 35 -19c7 -14 17 -24 23 -38c6 -12 10 -25 14 -37c4 -8 9 -12 11 -22v-1z"></glyph><glyph glyph-name="iacute" unicode="í" d="M262 246c4 -19 -14 -41 -24 -54c-17 -25 -33 -49 -52 -73c-20 -27 -45 -70 -80 -78c-8 -1 -46 9 -45 15h2c-8 4 0 -5 -12 4c-9 6 -15 15 -21 24c-11 15 -25 28 -29 46c-1 5 -3 41 5 41c2 0 0 -5 1 -5l3 18c-1 -2 -1 -3 -3 -4c-4 1 15 72 17 78c8 21 12 45 32 57 c15 10 34 8 53 0c8 -3 31 -13 31 -23c0 -6 -5 -7 -8 -10c1 1 3 1 4 1c3 -2 -12 -23 -14 -22c-2 0 1 5 2 8c-19 -31 -35 -66 -47 -101c5 13 30 69 33 68s-66 -121 -32 -138c16 -8 43 17 54 26c19 15 45 34 59 51c-2 -2 -4 -2 -7 -2c-4 5 46 71 55 77c7 5 21 9 23 -4zM68 134 c1 2 1 2 0 1l-2 -8l2 6v1zM219 464c6 -3 -31 -36 -34 -39c-15 -17 -37 -33 -54 -46c-4 -3 -19 -14 -25 -9c-10 7 10 47 15 56l37 64c3 6 -2 11 10 12c5 1 17 -2 18 -2c10 -3 21 -7 28 -18c2 -3 4 -16 5 -18z"></glyph><glyph glyph-name="icircumflex" unicode="î" d="M262 246c4 -19 -14 -41 -24 -54c-17 -25 -33 -49 -52 -73c-20 -27 -45 -70 -80 -78c-8 -1 -46 9 -45 15h2c-8 4 0 -5 -12 4c-9 6 -15 15 -21 24c-11 15 -25 28 -29 46c-1 5 -3 41 5 41c2 0 0 -5 1 -5l3 18c-1 -2 -1 -3 -3 -4c-4 1 15 72 17 78c8 21 12 45 32 57 c15 10 34 8 53 0c8 -3 31 -13 31 -23c0 -6 -5 -7 -8 -10c1 1 3 1 4 1c3 -2 -12 -23 -14 -22c-2 0 1 5 2 8c-19 -31 -35 -66 -47 -101c5 13 30 69 33 68s-66 -121 -32 -138c16 -8 43 17 54 26c19 15 45 34 59 51c-2 -2 -4 -2 -7 -2c-4 5 46 71 55 77c7 5 21 9 23 -4zM68 134 c1 2 1 2 0 1l-2 -8l2 6v1zM220 488c2 -27 1 -55 -1 -82c-1 -15 -11 -36 -32 -28c-32 12 -33 74 -33 99c-14 -14 -27 -25 -40 -40c-14 -16 -37 -37 -57 -44c-35 -12 11 45 19 53c30 32 69 84 113 98c12 5 19 2 25 -11c3 -9 2 -18 3 -27c0 -3 -2 -7 -1 -10c0 -3 4 -3 4 -8z "></glyph><glyph glyph-name="idieresis" unicode="ï" d="M262 246c4 -19 -14 -41 -24 -54c-17 -25 -33 -49 -52 -73c-20 -27 -45 -70 -80 -78c-8 -1 -46 9 -45 15h2c-8 4 0 -5 -12 4c-9 6 -15 15 -21 24c-11 15 -25 28 -29 46c-1 5 -3 41 5 41c2 0 0 -5 1 -5l3 18c-1 -2 -1 -3 -3 -4c-4 1 15 72 17 78c8 21 12 45 32 57 c15 10 34 8 53 0c8 -3 31 -13 31 -23c0 -6 -5 -7 -8 -10c1 1 3 1 4 1c3 -2 -12 -23 -14 -22c-2 0 1 5 2 8c-19 -31 -35 -66 -47 -101c5 13 30 69 33 68s-66 -121 -32 -138c16 -8 43 17 54 26c19 15 45 34 59 51c-2 -2 -4 -2 -7 -2c-4 5 46 71 55 77c7 5 21 9 23 -4zM68 134 c1 2 1 2 0 1l-2 -8l2 6v1zM254 463c1 -5 3 -21 1 -26h-1c-2 -14 -11 -26 -21 -36c4 3 8 6 9 6c4 -2 -33 -29 -36 -31c-8 -5 -11 -7 -20 -6c-3 1 -22 12 -19 14c1 1 2 1 3 0c-1 1 -9 8 -8 6c10 -13 -3 0 -4 3c-3 8 -5 11 -4 21c1 16 9 28 21 39c17 16 70 46 77 5 c-2 21 -22 25 -39 21c18 6 32 4 41 -16zM114 474c10 1 -5 -33 -6 -36c-6 -16 -13 -27 -29 -38c-6 -4 -18 -15 -25 -15c-12 -1 -29 16 -35 26c-10 18 6 45 19 59c6 6 13 9 19 14c2 2 -2 6 4 9c7 4 14 0 20 0c1 0 2 4 6 4c5 0 9 -1 13 -3c10 -4 12 -9 14 -20zM189 371 c2 4 -5 2 -9 5c2 -3 5 -4 8 -5h1zM194 471c-2 3 1 4 6 5c0 0 -5 -5 -6 -5zM249 429v1c0 1 0 3 1 5c-1 -5 -3 -10 -5 -14zM253 446c0 7 -2 -1 -2 -6c0 2 1 4 2 6zM205 379c3 1 6 4 10 7zM230 398c1 0 2 1 3 2zM228 396c0 0 1 1 2 1c-1 0 -2 -1 -2 -1zM213 479 c-2 0 -3 -1 -4 -1c1 0 2 1 4 1z"></glyph><glyph glyph-name="ntilde" unicode="ñ" d="M414 238c4 -24 -34 -58 -46 -74c-22 -28 -42 -58 -66 -84c-18 -19 -48 -51 -76 -42c-6 2 -43 22 -42 27l3 -2l-6 6c5 -8 -6 2 -7 2c-5 5 -9 13 -12 19c-5 11 -6 22 -6 33s2 22 3 33c2 23 3 43 10 65c2 5 23 61 30 59c2 0 -3 -7 -2 -8l14 28c-2 -2 -3 -4 -5 -5 c-1 1 12 24 15 29c-20 -23 -36 -47 -54 -71c-13 -17 -29 -28 -38 -44c-21 -36 -47 -69 -64 -106l-4 8c-18 -22 -45 4 -55 21c-9 16 -6 28 -4 46c2 16 1 32 6 49c6 21 14 41 22 62c7 21 14 42 22 63c5 13 15 29 18 43c3 11 0 18 13 26c12 7 25 6 38 4c16 -3 45 -20 28 -45 c-7 -9 -19 -19 -27 -29c-9 -11 -8 -16 -12 -29c-2 -8 -10 -15 -14 -23c-6 -11 -10 -25 -14 -38c-2 -8 -1 -14 -2 -22c-2 -21 -9 -42 -11 -63c1 4 8 11 9 10s-10 -18 -9 -18l59 86l-23 -29c-3 2 116 154 130 167c29 27 66 26 80 -21c16 -50 -36 -83 -60 -119 c-13 -20 -24 -44 -34 -65c-7 -13 -22 -42 -24 -64c2 15 13 33 17 43c8 21 19 38 35 53c-7 -13 -15 -25 -21 -37l5 6c2 0 -9 -34 -10 -36c-4 -12 -8 -25 -9 -38c-1 -1 0 -17 0 -17l1 -1c0 1 7 2 9 3c15 5 30 19 42 29c24 19 47 40 70 60c17 16 39 32 53 49c6 9 20 25 25 1z M345 532c3 3 9 21 19 7c9 -12 -10 -25 -14 -31c-6 -8 -11 -15 -21 -21c-17 -10 -40 -12 -57 -8c-21 6 -39 21 -60 25c-13 3 -25 6 -39 2c-11 -3 -26 -18 -37 -9c-33 24 47 63 60 67c48 19 66 -21 107 -37c14 -6 30 -5 42 5z"></glyph><glyph glyph-name="ograve" unicode="ò" d="M460 249c29 -37 -88 -45 -99 -47c-2 0 -15 -4 -14 -3c-10 -4 -8 -3 -15 -12c-8 -12 -15 -25 -22 -37c-4 -4 -40 -57 -47 -54c0 0 8 10 7 11l-29 -34c3 3 5 4 5 3c-6 -17 -39 -37 -54 -48c-16 -12 -36 -23 -57 -26c-20 -2 -42 2 -61 11c-59 29 -94 109 -62 170 c17 32 29 68 53 100c14 17 29 34 48 46c8 6 17 11 27 15c7 4 22 5 27 9c6 4 12 30 16 38s9 16 14 23c14 20 31 40 52 52c34 19 68 0 93 -25c0 0 17 -11 16 -17l-4 4l4 -8l1 -1c-3 8 9 -7 9 -7c5 -8 8 -17 10 -26c3 -14 2 -29 0 -43c-4 -37 -15 -75 -26 -111 c30 5 60 12 89 18c7 2 14 7 19 0c1 -2 0 -1 0 -1zM114 47c70 13 124 94 153 152c-44 6 -98 25 -109 75c-7 -8 -21 -32 -36 -62l6 9c-2 -10 -98 -186 -15 -174h1zM311 324c5 25 19 74 4 100c-20 31 -57 -14 -72 -34c-1 0 -1 -1 -1 -1l-1 -2v1c-1 -2 -2 -3 -1 -3 c-5 -7 -11 -13 -17 -24c1 1 12 19 13 16c3 -6 -16 -38 -19 -44c-6 -16 -11 -32 -13 -49s-4 -36 10 -48c8 -7 21 -9 32 -10c6 -1 19 -3 25 -1c10 2 7 -1 12 9c15 25 21 62 28 90zM242 389c0 0 1 0 1 1zM335 515c5 -34 -40 6 -48 13c-20 17 -37 42 -59 57c-10 6 -18 6 -10 23 c2 3 6 3 7 4c2 3 -2 4 1 7c6 7 17 12 26 13c19 1 26 -3 35 -19c7 -14 17 -24 23 -38c6 -12 10 -25 14 -37c4 -8 9 -12 11 -22v-1z"></glyph><glyph glyph-name="oacute" unicode="ó" d="M460 249c29 -37 -88 -45 -99 -47c-2 0 -15 -4 -14 -3c-10 -4 -8 -3 -15 -12c-8 -12 -15 -25 -22 -37c-4 -4 -40 -57 -47 -54c0 0 8 10 7 11l-29 -34c3 3 5 4 5 3c-6 -17 -39 -37 -54 -48c-16 -12 -36 -23 -57 -26c-20 -2 -42 2 -61 11c-59 29 -94 109 -62 170 c17 32 29 68 53 100c14 17 29 34 48 46c8 6 17 11 27 15c7 4 22 5 27 9c6 4 12 30 16 38s9 16 14 23c14 20 31 40 52 52c34 19 68 0 93 -25c0 0 17 -11 16 -17l-4 4l4 -8l1 -1c-3 8 9 -7 9 -7c5 -8 8 -17 10 -26c3 -14 2 -29 0 -43c-4 -37 -15 -75 -26 -111 c30 5 60 12 89 18c7 2 14 7 19 0c1 -2 0 -1 0 -1zM114 47c70 13 124 94 153 152c-44 6 -98 25 -109 75c-7 -8 -21 -32 -36 -62l6 9c-2 -10 -98 -186 -15 -174h1zM311 324c5 25 19 74 4 100c-20 31 -57 -14 -72 -34c-1 0 -1 -1 -1 -1l-1 -2v1c-1 -2 -2 -3 -1 -3 c-5 -7 -11 -13 -17 -24c1 1 12 19 13 16c3 -6 -16 -38 -19 -44c-6 -16 -11 -32 -13 -49s-4 -36 10 -48c8 -7 21 -9 32 -10c6 -1 19 -3 25 -1c10 2 7 -1 12 9c15 25 21 62 28 90zM242 389c0 0 1 0 1 1zM389 605c6 -3 -31 -36 -34 -39c-15 -17 -37 -33 -54 -46 c-4 -3 -19 -14 -25 -9c-10 7 10 47 15 56l37 64c3 6 -2 11 10 12c5 1 17 -2 18 -2c10 -3 21 -7 28 -18c2 -3 4 -16 5 -18z"></glyph><glyph glyph-name="ocircumflex" unicode="ô" d="M460 249c29 -37 -88 -45 -99 -47c-2 0 -15 -4 -14 -3c-10 -4 -8 -3 -15 -12c-8 -12 -15 -25 -22 -37c-4 -4 -40 -57 -47 -54c0 0 8 10 7 11l-29 -34c3 3 5 4 5 3c-6 -17 -39 -37 -54 -48c-16 -12 -36 -23 -57 -26c-20 -2 -42 2 -61 11c-59 29 -94 109 -62 170 c17 32 29 68 53 100c14 17 29 34 48 46c8 6 17 11 27 15c7 4 22 5 27 9c6 4 12 30 16 38s9 16 14 23c14 20 31 40 52 52c34 19 68 0 93 -25c0 0 17 -11 16 -17l-4 4l4 -8l1 -1c-3 8 9 -7 9 -7c5 -8 8 -17 10 -26c3 -14 2 -29 0 -43c-4 -37 -15 -75 -26 -111 c30 5 60 12 89 18c7 2 14 7 19 0c1 -2 0 -1 0 -1zM114 47c70 13 124 94 153 152c-44 6 -98 25 -109 75c-7 -8 -21 -32 -36 -62l6 9c-2 -10 -98 -186 -15 -174h1zM311 324c5 25 19 74 4 100c-20 31 -57 -14 -72 -34c-1 0 -1 -1 -1 -1l-1 -2v1c-1 -2 -2 -3 -1 -3 c-5 -7 -11 -13 -17 -24c1 1 12 19 13 16c3 -6 -16 -38 -19 -44c-6 -16 -11 -32 -13 -49s-4 -36 10 -48c8 -7 21 -9 32 -10c6 -1 19 -3 25 -1c10 2 7 -1 12 9c15 25 21 62 28 90zM242 389c0 0 1 0 1 1zM379 607c2 -27 1 -55 -1 -82c-1 -15 -11 -36 -32 -28 c-32 12 -33 74 -33 99c-14 -14 -27 -25 -40 -40c-14 -16 -37 -37 -57 -44c-35 -12 11 45 19 53c30 32 69 84 113 98c12 5 19 2 25 -11c3 -9 2 -18 3 -27c0 -3 -2 -7 -1 -10c0 -3 4 -3 4 -8z"></glyph><glyph glyph-name="otilde" unicode="õ" d="M460 249c29 -37 -88 -45 -99 -47c-2 0 -15 -4 -14 -3c-10 -4 -8 -3 -15 -12c-8 -12 -15 -25 -22 -37c-4 -4 -40 -57 -47 -54c0 0 8 10 7 11l-29 -34c3 3 5 4 5 3c-6 -17 -39 -37 -54 -48c-16 -12 -36 -23 -57 -26c-20 -2 -42 2 -61 11c-59 29 -94 109 -62 170 c17 32 29 68 53 100c14 17 29 34 48 46c8 6 17 11 27 15c7 4 22 5 27 9c6 4 12 30 16 38s9 16 14 23c14 20 31 40 52 52c34 19 68 0 93 -25c0 0 17 -11 16 -17l-4 4l4 -8l1 -1c-3 8 9 -7 9 -7c5 -8 8 -17 10 -26c3 -14 2 -29 0 -43c-4 -37 -15 -75 -26 -111 c30 5 60 12 89 18c7 2 14 7 19 0c1 -2 0 -1 0 -1zM114 47c70 13 124 94 153 152c-44 6 -98 25 -109 75c-7 -8 -21 -32 -36 -62l6 9c-2 -10 -98 -186 -15 -174h1zM311 324c5 25 19 74 4 100c-20 31 -57 -14 -72 -34c-1 0 -1 -1 -1 -1l-1 -2v1c-1 -2 -2 -3 -1 -3 c-5 -7 -11 -13 -17 -24c1 1 12 19 13 16c3 -6 -16 -38 -19 -44c-6 -16 -11 -32 -13 -49s-4 -36 10 -48c8 -7 21 -9 32 -10c6 -1 19 -3 25 -1c10 2 7 -1 12 9c15 25 21 62 28 90zM242 389c0 0 1 0 1 1zM417 567c3 3 9 21 19 7c9 -12 -10 -25 -14 -31c-6 -8 -11 -15 -21 -21 c-17 -10 -40 -12 -57 -8c-21 6 -39 21 -60 25c-13 3 -25 6 -39 2c-11 -3 -26 -18 -37 -9c-33 24 47 63 60 67c48 19 66 -21 107 -37c14 -6 30 -5 42 5z"></glyph><glyph glyph-name="odieresis" unicode="ö" d="M460 249c29 -37 -88 -45 -99 -47c-2 0 -15 -4 -14 -3c-10 -4 -8 -3 -15 -12c-8 -12 -15 -25 -22 -37c-4 -4 -40 -57 -47 -54c0 0 8 10 7 11l-29 -34c3 3 5 4 5 3c-6 -17 -39 -37 -54 -48c-16 -12 -36 -23 -57 -26c-20 -2 -42 2 -61 11c-59 29 -94 109 -62 170 c17 32 29 68 53 100c14 17 29 34 48 46c8 6 17 11 27 15c7 4 22 5 27 9c6 4 12 30 16 38s9 16 14 23c14 20 31 40 52 52c34 19 68 0 93 -25c0 0 17 -11 16 -17l-4 4l4 -8l1 -1c-3 8 9 -7 9 -7c5 -8 8 -17 10 -26c3 -14 2 -29 0 -43c-4 -37 -15 -75 -26 -111 c30 5 60 12 89 18c7 2 14 7 19 0c1 -2 0 -1 0 -1zM114 47c70 13 124 94 153 152c-44 6 -98 25 -109 75c-7 -8 -21 -32 -36 -62l6 9c-2 -10 -98 -186 -15 -174h1zM311 324c5 25 19 74 4 100c-20 31 -57 -14 -72 -34c-1 0 -1 -1 -1 -1l-1 -2v1c-1 -2 -2 -3 -1 -3 c-5 -7 -11 -13 -17 -24c1 1 12 19 13 16c3 -6 -16 -38 -19 -44c-6 -16 -11 -32 -13 -49s-4 -36 10 -48c8 -7 21 -9 32 -10c6 -1 19 -3 25 -1c10 2 7 -1 12 9c15 25 21 62 28 90zM242 389c0 0 1 0 1 1zM416 581c1 -5 3 -21 1 -26h-1c-2 -14 -11 -26 -21 -36c4 3 8 6 9 6 c4 -2 -33 -29 -36 -31c-8 -5 -11 -7 -20 -6c-3 1 -22 12 -19 14c1 1 2 1 3 0c-1 1 -9 8 -8 6c10 -13 -3 0 -4 3c-3 8 -5 11 -4 21c1 16 9 28 21 39c17 16 70 46 77 5c-2 21 -22 25 -39 21c18 6 32 4 41 -16zM276 592c10 1 -5 -33 -6 -36c-6 -16 -13 -27 -29 -38 c-6 -4 -18 -15 -25 -15c-12 -1 -29 16 -35 26c-10 18 6 45 19 59c6 6 13 9 19 14c2 2 -2 6 4 9c7 4 14 0 20 0c1 0 2 4 6 4c5 0 9 -1 13 -3c10 -4 12 -9 14 -20zM351 489c2 4 -5 2 -9 5c2 -3 5 -4 8 -5h1zM356 589c-2 3 1 4 6 5c0 0 -5 -5 -6 -5zM411 547v1c0 1 0 3 1 5 c-1 -5 -3 -10 -5 -14zM415 564c0 7 -2 -1 -2 -6c0 2 1 4 2 6zM367 497c3 1 6 4 10 7zM392 516c1 0 2 1 3 2zM390 514c0 0 1 1 2 1c-1 0 -2 -1 -2 -1zM375 597c-2 0 -3 -1 -4 -1c1 0 2 1 4 1z"></glyph><glyph glyph-name="oslash" unicode="ø" d="M460 249c29 -37 -88 -45 -99 -47c-2 0 -15 -4 -14 -3c-10 -4 -8 -3 -15 -12c-8 -12 -15 -25 -22 -37c-4 -4 -40 -57 -47 -54c0 0 8 10 7 11l-29 -34c3 3 5 4 5 3c-6 -17 -39 -37 -54 -48c-16 -12 -36 -23 -57 -26c-20 -2 -42 2 -61 11c-59 29 -94 109 -62 170 c17 32 29 68 53 100c14 17 29 34 48 46c8 6 17 11 27 15c7 4 22 5 27 9c6 4 12 30 16 38s9 16 14 23c14 20 31 40 52 52c34 19 68 0 93 -25c0 0 17 -11 16 -17l-4 4l4 -8l1 -1c-3 8 9 -7 9 -7c5 -8 8 -17 10 -26c3 -14 2 -29 0 -43c-4 -37 -15 -75 -26 -111 c30 5 60 12 89 18c7 2 14 7 19 0c1 -2 0 -1 0 -1zM114 47c70 13 124 94 153 152c-44 6 -98 25 -109 75c-7 -8 -21 -32 -36 -62l6 9c-2 -10 -98 -186 -15 -174h1zM311 324c5 25 19 74 4 100c-20 31 -57 -14 -72 -34c-1 0 -1 -1 -1 -1l-1 -2v1c-1 -2 -2 -3 -1 -3 c-5 -7 -11 -13 -17 -24c1 1 12 19 13 16c3 -6 -16 -38 -19 -44c-6 -16 -11 -32 -13 -49s-4 -36 10 -48c8 -7 21 -9 32 -10c6 -1 19 -3 25 -1c10 2 7 -1 12 9c15 25 21 62 28 90zM242 389c0 0 1 0 1 1zM420 486c4 0 -12 -32 -14 -35c-11 -20 -26 -37 -40 -55h1 c-12 -15 -21 -33 -33 -49l-77 -100c-37 -47 -71 -96 -109 -143v-1l-8 -10c-25 -30 -51 -67 -77 -99c-12 -15 -24 -30 -37 -45c-5 -6 -20 -27 -29 -25c-11 3 2 23 4 29c0 -1 1 2 1 1v0v0s-1 -1 -1 -4c2 4 2 5 2 5l3 6c-5 9 19 39 24 47c19 31 40 62 61 92c31 45 64 89 98 133 c42 58 89 113 136 168c18 20 36 41 56 60c12 12 22 23 39 25zM6 -39l9 18c-2 -3 -10 -15 -9 -18zM365 394c0 0 1 1 1 2c0 -1 -1 -2 -1 -2zM3 -45l-1 -1s1 0 1 1zM140 94v-1v1z"></glyph><glyph glyph-name="ugrave" unicode="ù" d="M473 244c1 -12 -15 -34 -21 -44c-14 -24 -33 -46 -52 -67c-29 -31 -71 -82 -118 -85c-22 -2 -45 9 -57 29c-21 38 1 86 14 121l-76 -94c-7 -9 -83 -86 -93 -73c0 1 9 5 8 6c-10 -6 -21 -11 -32 -11c1 -1 3 -1 5 -1c2 -7 -27 4 -30 6c-11 10 -16 26 -19 40 c-5 32 0 64 8 95c8 32 16 63 30 94c7 16 19 24 26 38c11 25 25 57 47 75c18 16 50 13 68 -1s8 -21 0 -35c2 3 4 5 6 6c2 0 -22 -49 -27 -48c0 0 3 10 6 16c-13 -23 -25 -47 -36 -71c2 3 4 4 6 4c-2 1 -38 -92 -41 -100c-4 -15 -22 -59 5 -50c29 8 57 48 75 69 c24 27 44 56 65 86c22 33 48 88 99 74c45 -13 11 -61 -3 -89c2 2 4 5 5 4c6 -7 -14 -45 -17 -55c-6 -19 -14 -41 -15 -62c-1 -24 6 -17 22 -5c34 27 62 61 91 92c2 2 48 55 51 36zM321 224c7 21 17 41 25 63c-10 -25 -40 -57 -32 -82c0 -1 0 -2 -1 -3c1 1 2 2 2 3 c3 5 4 13 6 19zM83 95c-2 9 12 57 26 96c-11 -27 -32 -67 -26 -96zM239 193c1 3 2 6 4 9c-3 -2 -4 -5 -4 -9zM301 400c5 -34 -40 6 -48 13c-20 17 -37 42 -59 57c-10 6 -18 6 -10 23c2 3 6 3 7 4c2 3 -2 4 1 7c6 7 17 12 26 13c19 1 26 -3 35 -19c7 -14 17 -24 23 -38 c6 -12 10 -25 14 -37c4 -8 9 -12 11 -22v-1z"></glyph><glyph glyph-name="uacute" unicode="ú" d="M473 244c1 -12 -15 -34 -21 -44c-14 -24 -33 -46 -52 -67c-29 -31 -71 -82 -118 -85c-22 -2 -45 9 -57 29c-21 38 1 86 14 121l-76 -94c-7 -9 -83 -86 -93 -73c0 1 9 5 8 6c-10 -6 -21 -11 -32 -11c1 -1 3 -1 5 -1c2 -7 -27 4 -30 6c-11 10 -16 26 -19 40 c-5 32 0 64 8 95c8 32 16 63 30 94c7 16 19 24 26 38c11 25 25 57 47 75c18 16 50 13 68 -1s8 -21 0 -35c2 3 4 5 6 6c2 0 -22 -49 -27 -48c0 0 3 10 6 16c-13 -23 -25 -47 -36 -71c2 3 4 4 6 4c-2 1 -38 -92 -41 -100c-4 -15 -22 -59 5 -50c29 8 57 48 75 69 c24 27 44 56 65 86c22 33 48 88 99 74c45 -13 11 -61 -3 -89c2 2 4 5 5 4c6 -7 -14 -45 -17 -55c-6 -19 -14 -41 -15 -62c-1 -24 6 -17 22 -5c34 27 62 61 91 92c2 2 48 55 51 36zM321 224c7 21 17 41 25 63c-10 -25 -40 -57 -32 -82c0 -1 0 -2 -1 -3c1 1 2 2 2 3 c3 5 4 13 6 19zM83 95c-2 9 12 57 26 96c-11 -27 -32 -67 -26 -96zM239 193c1 3 2 6 4 9c-3 -2 -4 -5 -4 -9zM363 458c6 -3 -31 -36 -34 -39c-15 -17 -37 -33 -54 -46c-4 -3 -19 -14 -25 -9c-10 7 10 47 15 56l37 64c3 6 -2 11 10 12c5 1 17 -2 18 -2c10 -3 21 -7 28 -18 c2 -3 4 -16 5 -18z"></glyph><glyph glyph-name="ucircumflex" unicode="û" d="M473 244c1 -12 -15 -34 -21 -44c-14 -24 -33 -46 -52 -67c-29 -31 -71 -82 -118 -85c-22 -2 -45 9 -57 29c-21 38 1 86 14 121l-76 -94c-7 -9 -83 -86 -93 -73c0 1 9 5 8 6c-10 -6 -21 -11 -32 -11c1 -1 3 -1 5 -1c2 -7 -27 4 -30 6c-11 10 -16 26 -19 40 c-5 32 0 64 8 95c8 32 16 63 30 94c7 16 19 24 26 38c11 25 25 57 47 75c18 16 50 13 68 -1s8 -21 0 -35c2 3 4 5 6 6c2 0 -22 -49 -27 -48c0 0 3 10 6 16c-13 -23 -25 -47 -36 -71c2 3 4 4 6 4c-2 1 -38 -92 -41 -100c-4 -15 -22 -59 5 -50c29 8 57 48 75 69 c24 27 44 56 65 86c22 33 48 88 99 74c45 -13 11 -61 -3 -89c2 2 4 5 5 4c6 -7 -14 -45 -17 -55c-6 -19 -14 -41 -15 -62c-1 -24 6 -17 22 -5c34 27 62 61 91 92c2 2 48 55 51 36zM321 224c7 21 17 41 25 63c-10 -25 -40 -57 -32 -82c0 -1 0 -2 -1 -3c1 1 2 2 2 3 c3 5 4 13 6 19zM83 95c-2 9 12 57 26 96c-11 -27 -32 -67 -26 -96zM239 193c1 3 2 6 4 9c-3 -2 -4 -5 -4 -9zM342 498c2 -27 1 -55 -1 -82c-1 -15 -11 -36 -32 -28c-32 12 -33 74 -33 99c-14 -14 -27 -25 -40 -40c-14 -16 -37 -37 -57 -44c-35 -12 11 45 19 53 c30 32 69 84 113 98c12 5 19 2 25 -11c3 -9 2 -18 3 -27c0 -3 -2 -7 -1 -10c0 -3 4 -3 4 -8z"></glyph><glyph glyph-name="udieresis" unicode="ü" d="M473 244c1 -12 -15 -34 -21 -44c-14 -24 -33 -46 -52 -67c-29 -31 -71 -82 -118 -85c-22 -2 -45 9 -57 29c-21 38 1 86 14 121l-76 -94c-7 -9 -83 -86 -93 -73c0 1 9 5 8 6c-10 -6 -21 -11 -32 -11c1 -1 3 -1 5 -1c2 -7 -27 4 -30 6c-11 10 -16 26 -19 40 c-5 32 0 64 8 95c8 32 16 63 30 94c7 16 19 24 26 38c11 25 25 57 47 75c18 16 50 13 68 -1s8 -21 0 -35c2 3 4 5 6 6c2 0 -22 -49 -27 -48c0 0 3 10 6 16c-13 -23 -25 -47 -36 -71c2 3 4 4 6 4c-2 1 -38 -92 -41 -100c-4 -15 -22 -59 5 -50c29 8 57 48 75 69 c24 27 44 56 65 86c22 33 48 88 99 74c45 -13 11 -61 -3 -89c2 2 4 5 5 4c6 -7 -14 -45 -17 -55c-6 -19 -14 -41 -15 -62c-1 -24 6 -17 22 -5c34 27 62 61 91 92c2 2 48 55 51 36zM321 224c7 21 17 41 25 63c-10 -25 -40 -57 -32 -82c0 -1 0 -2 -1 -3c1 1 2 2 2 3 c3 5 4 13 6 19zM83 95c-2 9 12 57 26 96c-11 -27 -32 -67 -26 -96zM239 193c1 3 2 6 4 9c-3 -2 -4 -5 -4 -9zM407 485c1 -5 3 -21 1 -26h-1c-2 -14 -11 -26 -21 -36c4 3 8 6 9 6c4 -2 -33 -29 -36 -31c-8 -5 -11 -7 -20 -6c-3 1 -22 12 -19 14c1 1 2 1 3 0c-1 1 -9 8 -8 6 c10 -13 -3 0 -4 3c-3 8 -5 11 -4 21c1 16 9 28 21 39c17 16 70 46 77 5c-2 21 -22 25 -39 21c18 6 32 4 41 -16zM267 496c10 1 -5 -33 -6 -36c-6 -16 -13 -27 -29 -38c-6 -4 -18 -15 -25 -15c-12 -1 -29 16 -35 26c-10 18 6 45 19 59c6 6 13 9 19 14c2 2 -2 6 4 9 c7 4 14 0 20 0c1 0 2 4 6 4c5 0 9 -1 13 -3c10 -4 12 -9 14 -20zM342 393c2 4 -5 2 -9 5c2 -3 5 -4 8 -5h1zM347 493c-2 3 1 4 6 5c0 0 -5 -5 -6 -5zM402 451v1c0 1 0 3 1 5c-1 -5 -3 -10 -5 -14zM406 468c0 7 -2 -1 -2 -6c0 2 1 4 2 6zM358 401c3 1 6 4 10 7zM383 420 c1 0 2 1 3 2zM381 418c0 0 1 1 2 1c-1 0 -2 -1 -2 -1zM366 501c-2 0 -3 -1 -4 -1c1 0 2 1 4 1z"></glyph><glyph glyph-name="yacute" unicode="ý" d="M583 239c2 -19 -16 -28 -29 -38l-87 -69c-31 -25 -62 -51 -92 -78c-12 -11 -32 -23 -42 -37s-14 -44 -20 -61c-37 -117 -72 -240 -136 -346c-20 -32 -36 -66 -77 -76c-45 -12 -95 11 -122 48c-40 52 4 113 36 156c31 41 62 83 97 120c25 26 52 51 79 76 c19 19 52 41 65 65c16 30 22 71 33 104c8 28 17 56 26 84c-16 -12 -29 -35 -44 -50l-66 -66c-21 -22 -46 -45 -75 -57c-6 -2 -42 -18 -43 -17l2 2l-6 -2c7 0 -12 -8 -16 -8c-11 -2 -23 0 -32 5c-19 10 -32 35 -34 55c-1 7 3 71 13 70c2 0 -1 -6 1 -7c1 7 2 15 4 22l-2 -2 c-5 1 30 101 33 110c8 20 14 42 25 61c4 6 9 8 12 14c2 2 5 9 8 13c11 23 39 37 63 27c11 -4 26 -18 23 -31c-2 -6 -7 -8 -10 -12c1 0 2 1 3 1c3 -1 -12 -34 -15 -33c-2 0 1 8 2 12c-22 -46 -43 -94 -59 -143c7 18 39 97 42 96s-96 -193 -48 -208c17 -6 49 26 60 35 c27 21 61 45 83 68c-2 -1 -4 -3 -7 -3c1 0 48 57 55 65c17 19 46 41 54 66c4 14 6 24 27 28c24 4 60 -7 65 -34c2 -12 -3 -21 -9 -31c-30 -49 -58 -103 -77 -157c46 39 92 78 141 115c17 14 35 26 52 40c10 9 41 40 44 8zM153 -280c30 68 54 138 78 207 c-42 -39 -79 -80 -114 -125c-34 -43 -74 -90 -89 -144c-6 -22 -3 -88 37 -74c21 7 36 36 47 54c13 22 25 45 35 68c0 0 1 2 1 3c0 0 0 1 1 1v1l4 8v1zM211 -266c-5 -10 -9 -22 -13 -33l9 16c11 18 16 36 22 54c-7 -12 -14 -25 -18 -37zM245 -157c2 5 1 12 0 17 c2 -11 -6 -27 -10 -36c-4 -6 -6 -16 -8 -25zM213 -242c2 2 3 4 4 6zM383 443c6 -3 -31 -36 -34 -39c-15 -17 -37 -33 -54 -46c-4 -3 -19 -14 -25 -9c-10 7 10 47 15 56l37 64c3 6 -2 11 10 12c5 1 17 -2 18 -2c10 -3 21 -7 28 -18c2 -3 4 -16 5 -18z"></glyph></font>
</defs>
</svg>
